<?xml version="1.0" standalone="no"?>
<!DOCTYPE svg PUBLIC "-//W3C//DTD SVG 1.1//EN" "http://www.w3.org/Graphics/SVG/1.1/DTD/svg11.dtd">
<svg xmlns="http://www.w3.org/2000/svg">
<metadata>Copyright (C) 2015 by original authors @ fontello.com</metadata>
<defs>
<font id="fontello" horiz-adv-x="1000" >
<font-face font-family="fontello" font-weight="400" font-stretch="normal" units-per-em="1000" ascent="850" descent="-150" />
<missing-glyph horiz-adv-x="1000" />
<glyph glyph-name="users-2" unicode="&#xe800;" d="m229 457c30-21 63-32 98-32 44 0 88 18 123 52 10 10 20 20 22 23 1 2 2 3 3 5 34 64 28 130-15 181-11 12-20 23-23 26-2 1-4 3-6 4-30 16-61 24-92 24-41 0-82-15-119-44-2-2-3-3-4-4-3-4-12-16-20-27-50-74-36-159 33-208z m20 199c1 1 2 2 2 3 3 4 15 14 28 20 29 15 62 18 94 10 16-5 37-18 48-30 27-31 36-67 25-104-4-13-11-26-14-29-25-34-60-52-100-52-48 0-94 28-111 68-9 22-18 65 28 114z m425-28c22-15 48-24 73-24 34 0 67 14 93 40 7 7 14 14 16 17 1 1 2 2 3 3 25 48 21 98-12 136-8 9-15 17-17 19-1 2-3 3-5 4-23 12-46 18-68 18-32 0-62-11-90-33-1-1-2-2-3-4-2-2-9-11-15-19-37-56-27-120 25-157z m18 147c1 1 1 1 2 2 2 3 10 10 19 15 21 10 45 12 68 6 11-3 26-12 33-21 20-22 26-47 18-74-3-10-8-19-9-20-18-24-43-38-72-38-34 0-67 20-79 49-7 15-13 46 20 81z m295-244c-1 3-2 6-3 8-17 29-47 44-82 39 0 0 0 0 0 0-1 0-1 0-2 0-25 0-51 1-77 1-26 0-52 1-78 1-48 0-111-1-174-8-3 0-6 0-8-1-25-7-45-24-55-47-1-2-1-4-2-6-1-3-2-6-2-9 0-13 0-26-1-39 0-20 0-39-1-58 2 0 4 0 6 0 2 0 3 0 5 0 7-1 14-1 21-1 1 0 3 0 5 0 2 0 4 0 6 0 0 20 0 40 1 60 0 12 0 24 1 35 5 12 14 20 26 24 62 6 125 7 172 7 26 0 52 0 78 0 25-1 51-1 75-1 2 0 4 0 6 0 3 1 6 1 9 1 16 0 27-6 34-19 1-1 1-1 2-2 5-71 8-144 8-223-17 0-37 0-57-1-2 45-4 104-6 141-1 14-12 21-22 21-6 0-12-2-15-6-4-4-6-9-5-15 2-45 5-124 6-174-34 0-67 0-101 0-23 1-47 1-70 1 0-2 0-4 1-6 0-1 0-3 0-5 1-6 1-12 1-18 0-2 0-4 1-6 0-2 0-3 0-5 22 0 45-1 67-1 42 0 84-1 126-1h0c7 0 14 4 17 10 3 6 4 14 1 20l-1 4c23 1 46 1 67 1 4 0 8 1 11 3 0 0 0 0 1 0 6 0 11 2 15 6 4 4 6 9 6 14 0 87-3 167-9 244-1 4-2 8-4 11z m-87 42v0l0 0v0z m-279-180c8-5 15-11 21-17 2-2 4-4 5-6 2-2 4-5 6-8 0 26-1 50-1 69 0 21-25 25-36 14-4-4-6-9-6-14 0-9 0-20 0-31 2-1 4-2 6-3 2-1 3-2 5-4z m37-187c-1 5-1 9-1 14 0 2 0 4 0 5 0 2 0 4 0 6 0 6-1 12-1 18 0 2 0 4 0 6 0 1-1 3-1 5 0 5 0 9-1 14 0 2 0 4 0 5-1 9-3 18-4 26-1 3-2 5-2 7-2 5-3 11-6 16-3 6-6 12-11 18-3 3-6 6-9 9-2 1-4 3-6 4-2 1-4 2-5 4-4 2-9 4-13 6-7 3-14 6-21 7-5 2-10 3-14 3-6 0-12 1-19 1-1 0-3 0-5 0-2 0-4 0-6 0-6 0-13 0-20-1-2 0-4 0-6 0-1 0-3 0-5 0-9 0-18 0-27 0-16 0-32 0-48 0-15 1-31 1-46 1-63 0-126 0-189-2-35-2-70-4-106-8-2 0-5 0-8-1-31-9-57-30-70-60-1-2-2-5-2-8-2-3-3-6-3-10-2-102-6-204 0-306 1-8 6-14 12-18 3-3 7-5 13-5 40 0 81 1 121 3 0-14 0-27 0-37 0-4 1-7 2-10 3-7 9-13 18-13 115 0 229-2 343-2 18 0 23 19 16 31 0 4 0 9 0 14 33 2 65 2 98 2 5 0 9 2 12 4 12-1 25 5 25 21 0 67-3 133-5 200 0 10 0 21 0 31z m-131-218c-2 67-5 150-8 200-1 28-44 28-43 0 4-62 8-176 9-245-98 0-195 2-293 2-1 69-2 179-2 240 0 27-43 27-43 0 0-45 1-118 2-181-35-1-69-2-104-2-5 96-1 192 1 288 9 18 22 31 41 37 61 7 122 9 183 10 38 1 77 0 115 0 23 0 45 0 68-1 16 0 33 0 49 1 2 0 4 0 6 0 2 0 3 0 5 0 6 0 12 0 18 0 1 0 2 0 3 0 2 0 3 0 5 0 2 0 4 0 6 0 8 0 16-1 24-3 9-2 17-5 24-12 4-4 7-8 9-12 1-2 3-4 4-7 0-2 1-3 1-5 1-2 1-4 2-6 0-4 1-9 1-14 0-1 0-3 0-4 1-1 1-3 1-5 0-2 0-4 0-6 0-1 0-2 0-3 1-8 1-17 2-26 0-8 1-16 1-25 0 0 0 0 0 0 3-47 4-93 5-140 1-26 1-53 1-79-31 0-62-1-93-2z" horiz-adv-x="1000" />
<glyph glyph-name="agenda-2" unicode="&#xe801;" d="m880 673c1 7-1 14-7 21-30 30-35 60-6 94 1 1 2 3 3 5 11 14 4 41-19 42-181 8-400 8-581 14-1 0-2 0-3 0-1 0-1 0-1 0-60 4-123-30-129-95-1-7-1-13 0-20-2-3-3-7-3-12 2-237-4-474-6-711-1-2-1-4 0-6 8-73 53-126 127-137 2-1 4-1 7-1 1 0 2 0 4 0 173-16 348-15 522-15h53c14-4 33 3 33 23 1 266 20 531 6 797 0 0 0 1 0 1z m-693 79c6 38 46 49 79 47 1 0 2 0 3 0 0 0 1 0 1 0 167-5 371-7 538-13-13-28-13-56-1-84-169 8-375 5-543 1-1 0-1 0-2 0-3 1-7 2-11 2-28 0-70 10-64 47z m506-96c-4-61-8-121-11-181-11 11-22 22-34 33-8 7-18 7-25 3-3-1-5-1-7-3-20-11-41-20-62-29 4 59 6 119 9 178 43 0 87 0 130-1z m-422-740c-2 1-4 1-5 1-1 0-1 0-2 0-48 8-80 37-86 88 0 0 0 1 0 1 0 1 0 2 0 3 2 220 7 441 6 661 20-10 44-15 67-15 0 0 1 0 1 0 4-1 7-2 12-2 10 0 21 0 32 1-4-246-22-492-25-738z m553-14h-52c-1 0-1 0-1 0-152 0-304 0-455 11 2 247 20 494 24 741 58 2 118 2 178 3-2-70-5-140-11-210 0-12 7-19 16-20 4-3 9-3 15-1 32 11 62 24 91 39 18-17 35-35 52-53 6-21 43-18 43 8 3 78 8 156 13 235 32-1 64-2 94-4 11-249-5-499-7-749z" horiz-adv-x="1000" />
<glyph glyph-name="chat-2" unicode="&#xe802;" d="m988 671c0 4 0 7 0 11-1 40-6 77-33 109-24 30-66 40-102 43-2 0-4 0-6 0-1 0-2 0-4 0-153-4-306 0-459 4-2 0-3 1-4 1h-201c-1 0-2 0-2 0-1 0-2 0-3 0-77-2-142-43-156-123-1-4-1-7-1-11 0-2-1-3-1-5-7-100-12-201-14-302-1-51-2-103-1-154 0-53-7-109 22-157 26-43 69-57 115-65 2-1 5-1 7-1 0 0 0 0 1 0 1 0 3 0 4 0 99 9 197 14 296 14 6-4 13-8 20-11 1-1 1-1 2-2 102-62 208-116 315-167 23-11 43-2 55 13 9 8 14 20 11 34-1 3-2 7-4 10l-49 128h38c2 0 4 1 6 1 35-4 71-2 101 20 58 42 57 122 58 186 2 91-1 183-5 274-2 50-4 100-6 150z m-75-493c-2-18-8-34-20-46-22-16-58-6-83-6-22 1-46 0-67 0-6 0-11-1-16-2-24-3-46-23-35-52 12-31 24-63 36-94-67 34-134 69-199 108-3 2-5 4-8 6-10 5-19 10-29 16-7 8-17 14-31 14-104-1-207-5-311-15 0 0-1 0-2 0-1 0-2 0-3 0-13 0-24 3-34 9-8 5-16 16-20 27-1 3-2 5-4 8 1 3 1 6 1 9-4 180 1 360 14 540 9 38 31 52 72 53 1 0 2 0 2 0 1 0 2 0 3 0h191c91 0 182-8 274-9 46 0 92 3 138 5 31 1 73 6 100-13 31-22 24-72 25-105 2-51 3-102 5-152 1-51 2-101 2-152 0-26 0-51-1-77 0-22 3-48 0-72z" horiz-adv-x="1000" />
<glyph glyph-name="chat-all-2" unicode="&#xe803;" d="m992 692c0 2 0 5 0 7-1 27-4 51-22 72-16 20-43 26-67 28-1 0-3 0-4 0-1 0-1 0-2 0-101-3-202 0-303 3-1 0-2 0-2 0h-133c0 0 0 0-1 0-1 0-1 0-2 0-50 0-93-28-102-80-1-3-1-5-1-8 0-1 0-2 0-3-6-66-9-132-10-198-1-34-1-68-1-102 0-35-4-72 15-103 17-28 45-38 76-43 1 0 3-1 4-1 0 0 0 0 1 0 1 0 2 0 3 0 64 6 129 9 194 10 4-3 9-6 14-8 0 0 0-1 1-1 67-41 137-76 207-110 15-7 29-1 36 9 6 5 9 13 7 22 0 2-1 5-2 7l-33 84h25c2 0 3 0 5 0 23-2 46-1 66 13 38 28 37 81 38 123 2 60-1 120-3 180-1 33-3 66-4 99z m-50-325c-1-11-4-22-13-30-14-11-38-4-54-3-15 0-30 0-44 0-4 0-8-1-11-2-16-2-30-15-23-34 8-21 16-42 24-62-45 22-89 46-131 71-2 2-4 3-5 4-7 3-13 7-19 10-5 6-12 9-21 9-68 0-136-3-204-9-1 0-1 0-2 0 0 0-1 0-2 0-9 0-16 2-22 6-6 3-11 10-13 17-1 2-2 4-3 6 1 2 1 4 1 6-3 118 0 237 9 355 6 25 20 34 47 35 1 0 1 0 2 0 0 0 1 0 1 0h126c60 0 120-5 180-6 31 0 61 2 92 3 20 1 47 4 65-8 21-15 16-48 17-70 1-33 2-66 3-99 1-34 1-67 1-100 0-17 0-34 0-51-1-14 1-32-1-48z m-355-144c0 0 0-67 0-67-1-3-2-7-2-10 0 4-1-4-1-4-1-1-1-2-1-2 0-1 0-1-1-2 0 0-2-3-2-4-1-1-2-2-3-3 0 0-4-3-5-3 0 0-1-1-1-1 0 0-1 0-2-1-7-2-7-1-14-2 0 0-1 0-2 0-1 0-2 0-3 0h-195c-8 0-15-3-19-8-3-1-5-3-8-5-24-22-47-44-71-67 4 15 7 29 9 44 8 44-47 32-71 32-27-1-65-11-91-4-9 2-28 13-29 24-5 110-13 221-19 331 0 1 0 1 0 1 0 2 0 4 0 6-3 12-3 22 0 28 15 26 65 18 89 16 44-4 89-4 133-5 34-2 34 52 0 53-44 2-89 2-133 3-47 0-101 4-133-38-15-19-14-45-9-67 6-110 13-220 19-330 0-2 0-4 1-6-1-4 0-8 2-13 34-68 120-55 183-52-8-37-18-73-30-109-4-10-1-19 4-24 9-13 27-19 40-5 45 50 92 97 141 142h187c1 0 2 0 2 0 1 0 2 0 3 0 22 1 41 7 58 21 16 13 22 33 25 52 2 4 3 8 3 13v66c0 35-54 35-54 0z" horiz-adv-x="1000" />
<glyph glyph-name="cancel-circle-2" unicode="&#xe804;" d="m408 615c-14 14-30 13-42 6-5-2-9-5-12-8l-88-88c-8-8-11-16-11-24 0-1 0-1 0-2 0 0 0-1 0-1 0-9 3-17 11-25 30-30 60-60 92-88l-97-97c-16-16-13-35-2-48 1-6 4-12 10-17l92-93c12-12 26-13 38-8 7 1 15 4 22 11l96 96c34-31 68-63 102-94 16-14 35-11 48-1 3 1 6 4 9 6l91 91c11 11 12 25 8 37 1 9-2 19-11 27-34 33-70 63-107 93 25 29 51 59 76 88 4 5 7 10 8 15 8 14 6 32-5 44l-6 5c-4 5-9 7-14 9-28 23-53 49-79 74-13 14-30 13-42 5-4-2-8-4-12-8l-88-88c-29 28-59 55-87 83z m204-69c15-15 31-30 47-44-25-29-50-59-76-88-2-3-4-5-5-8-14-13-19-34 0-49 40-31 79-62 116-96l-50-50c-32 30-64 60-97 89-2 2-4 4-6 5-13 13-34 17-51 1l-100-101-54 54 100 101c15 14 13 33 3 46-1 3-4 7-8 11-30 26-59 54-88 82l39 39c27-25 54-49 80-75 3-2 5-4 8-6 13-14 34-19 51-2l91 91z m-102 288c-22 0-44-2-65-4-11-2-21-3-31-5-6-1-12-3-17-5-205-28-363-182-392-385-36-249 153-484 421-523 23-4 47-5 72-5 0 0 0 0 0 0 246 0 459 167 497 388 21 128-25 268-128 385-87 99-214 154-357 154z m28-112c97-7 180-47 249-119 81-85 117-204 94-311-29-136-172-273-389-273-25 0-50 2-74 6-200 37-335 221-301 411 29 163 172 277 349 277 12 0 24-1 36-2 14-1 26 3 36 11z" horiz-adv-x="1000" />
<glyph glyph-name="check-2" unicode="&#xe805;" d="m913 777c-7 12-18 19-31 19-7 0-15-2-21-6-4-2-8-4-11-8-197-197-365-360-541-516l-93 112c-9 11-19 13-26 13-8 0-16-3-23-8l-1-1c-50-32-97-60-143-83-13-6-20-17-20-30-6-14-3-28 9-39 41-40 80-84 117-126 41-46 83-94 129-137 2-2 3-3 5-4 7-10 17-15 27-15 7 0 14 3 21 8 129 97 244 207 330 292 25 25 51 50 76 75 89 87 181 178 268 269 4 5 8 11 9 17 8 12 7 26-1 39-30 45-56 87-80 129z m0-148c-64-67-131-133-196-197-34-33-69-67-103-101-96-97-202-199-320-291-39 38-75 79-110 119-27 31-56 63-85 93 27 14 53 30 82 48l96-117c9-11 19-13 26-13 8 0 17 4 24 10 3 2 5 3 7 5 189 165 370 343 538 510 12-20 25-42 41-66z" horiz-adv-x="1000" />
<glyph glyph-name="info-2" unicode="&#xe806;" d="m591 474c-1 10-7 19-20 18-52-5-104-8-156-13-10 3-22-1-25-15-9-33-17-67-23-102-1-7 0-13 4-17 2-9 9-16 20-17 20-3 39-4 60-4-3-98-7-195-10-293-3-12 4-27 20-26 30 1 61 1 91 0 5 0 10 1 13 4 7 2 13 9 13 19-2 147 12 293 14 439 0 3 0 5-1 7z m-56-425c-17 0-34 0-50 0 3 97 7 194 9 292 1 8-3 14-9 17-4 5-9 8-17 8-18 1-37 1-56 3 5 23 10 45 16 68 40 4 80 6 121 10-3-133-15-266-14-398z m-32 649c-2 1-4 1-5 1-3 1-6 1-9 1l-1 0c-31-2-61-17-81-41-17-22-25-49-21-75 8-48 52-83 104-83 9 0 17 1 25 2 40 10 72 50 77 96 6 54-40 91-89 99z m43-90c1-21-12-44-33-56-7-4-15-6-23-6-22 0-44 13-55 32-9 16-5 32 1 42 10 18 32 33 52 34 1 0 1 0 1 0 1 0 2 0 3 0 35-6 53-22 54-46z m-47 208c-89 0-176-23-250-66-66-38-132-119-168-183-68-121-66-290 6-430 36-72 92-129 161-167 64-35 167-75 248-75 247 0 451 198 463 450 0 4 0 9 0 13 2 81-35 174-46 201-67 158-226 257-414 257z m400-468c-11-220-188-393-403-393-65 0-157 34-219 68-59 32-106 81-137 141-62 123-65 270-6 374 31 55 89 128 145 160 65 38 141 58 220 58 163 0 301-85 358-220 21-50 43-122 42-177 0-4 0-8 0-11z" horiz-adv-x="1000" />
<glyph glyph-name="picture-boxed-2" unicode="&#xe807;" d="m977 575c-2 19-15 30-29 32-3 1-7 2-10 3-60 2-121 5-181 7-80 75-166 144-253 210-4 7-12 12-22 12s-17-5-22-12c-88-67-174-138-262-206-50-1-101-2-151-5-20 0-31-16-32-33-1-3-1-5-1-8-10-193-16-385-13-578 0-3 0-7 1-10-2-19 9-40 31-42 314-25 631-38 943 12 18 3 25 17 23 32 1 3 1 5 1 8-6 193-4 386-23 578z m-495 202c66-51 131-103 193-158-129 4-259 6-388 4 65 51 129 103 195 154z m-416-765c-2 179 3 357 12 536 279 11 558 5 836-7 15-173 15-347 20-520-287-43-580-31-868-9z m809 483c-1 15-11 23-22 25-3 0-6 1-8 1-234 10-468 15-702 5-16 0-24-12-25-24 0-2-1-4-1-7-7-141-12-283-10-425 0-3 1-5 1-8-1-13 7-29 25-31 247-18 496-28 742 9 14 2 19 13 18 24 0 2 1 4 1 6-5 142-4 284-19 425z m-717-414c-1 132 3 263 10 395 219 8 439 4 658-6 12-127 12-255 15-383-226-31-456-23-683-6z m649 72c-29 53-68 100-114 139-11 9-25 7-34 1-2-1-4-2-5-4-25-19-49-38-73-58-21 38-44 75-72 110-8 11-27 9-36 0-56-60-101-128-146-196-5-8-5-15-2-22-1-13 8-26 24-27 86-5 172-3 258 0 0 0 0 0 1 0 59 0 118 0 177 2 20 1 28 19 24 33 3 7 3 14-2 22z m-418-7c32 47 64 93 101 136 30-42 54-89 76-136-59-1-118-2-177 0z m233 1c-5 13-11 25-17 37 23 19 45 38 69 56 29-27 54-58 75-91-42-1-84-2-127-2z m-251 199c5 24-3 46-18 63-16 19-41 29-67 25-47-8-75-60-54-105 15-32 72-45 101-32 20 8 33 29 38 49z m-52 8c-8-14-25-12-33-1-3 4-5 9-5 14 1 35 53 11 38-13z" horiz-adv-x="1000" />
<glyph glyph-name="picture-2" unicode="&#xe808;" d="m977 614c-2 18-15 28-29 31-3 1-7 1-11 2-296 13-593 19-890 6-20-1-31-16-32-31-1-3-1-5-1-8-10-180-16-360-13-541 0-3 0-6 1-9-2-18 9-38 31-40 314-23 631-35 943 11 18 3 25 17 23 31 1 2 1 5 1 7-6 181-5 361-23 541z m-911-527c-2 168 3 335 12 502 279 10 558 5 836-7 15-162 15-324 20-487-288-39-580-29-868-8z m824 91c-37 68-86 128-146 177-14 12-30 10-42 1-3-1-5-2-7-4-31-24-62-49-92-74-27 48-56 95-91 140-11 13-35 12-46 0-71-77-129-163-186-249-6-10-6-20-3-28 0-16 10-34 32-35 109-6 218-3 327 0 0 0 0 0 0 0 76 0 151 1 226 3 25 1 35 24 31 42 3 8 3 18-3 27z m-531-8c40 60 81 118 128 173 38-54 69-113 97-173-75-2-150-3-225 0z m296 2c-7 15-14 31-22 46 29 24 58 48 87 71 37-34 69-73 96-115-53-2-107-2-161-2z m-319 252c6 30-4 59-23 80-20 24-52 37-84 32-60-11-96-77-69-134 19-40 91-57 128-40 25 11 42 36 48 62z m-66 10c-11-18-32-15-42-1-4 5-6 11-6 18 1 44 67 14 48-17z" horiz-adv-x="1000" />
<glyph glyph-name="book-2" unicode="&#xe809;" d="m998 608c0 4-1 8-4 11-1 2-3 5-5 7-142 105-345 161-486 30-142 131-344 75-486-30-3-2-4-5-6-7-2-3-3-7-3-11 4-176-2-351-2-527 0-3 1-6 2-8-3-12 6-28 21-22 150 59 319 72 456-22 3-8 10-13 18-11 8-2 15 3 18 11 136 94 306 81 456 22 15-6 24 10 21 22 1 2 2 5 2 8 0 176-6 351-2 527z m-495-548c-137 95-308 89-460 35 0 169 5 337 2 506 130 93 316 148 443 18 5-4 10-6 15-5 5-1 10 1 14 5 128 130 314 75 444-18-3-169 2-337 2-506-152 54-323 60-460-35z m482-36c-155 62-372 86-486-50-114 136-332 112-487 50-27-11-4-49 24-38 140 57 350 82 442-59 5-8 13-11 21-11 7 0 15 3 20 11 92 141 302 116 442 59 28-11 51 27 24 38z m-879 420c4-8 13-14 22-8 25 17 51 28 80 34 10 2 13 9 11 17 1 1 1 2 1 4v92c0 10-9 16-17 15-1 1-3 1-5 1-33-1-65-9-91-29-6-4-8-10-7-15-1-1-1-3-1-5-3-30-3-61-3-91 0-8 4-13 10-15z m25 103c17 11 36 17 57 19v-68c-21-5-41-13-60-24 0 25 1 49 3 73z m153 15c40 13 78 10 114-12 18-11 34 17 16 28-43 26-91 31-139 15-20-7-11-38 9-31z m-3-70c40 8 77 2 112-20 17-12 33 16 16 28-42 27-88 33-137 23-20-5-11-36 9-31z m144-95c-108 61-235 37-335-30-17-11-1-39 17-28 90 61 203 85 302 30 18-10 34 18 16 28z m0-76c-108 61-235 38-335-29-17-12-1-40 17-28 90 60 203 85 302 29 18-10 34 18 16 28z m0-75c-108 61-235 37-335-30-17-11-1-40 17-28 90 61 203 85 302 30 18-10 34 18 16 28z m142 110c94 64 209 48 304-4 18-10 32 19 14 29-105 58-234 71-337 2-17-12 2-38 19-27z m6-75c94 63 209 48 304-5 18-10 32 20 14 30-105 58-234 71-336 1-18-11 1-38 18-26z m-6 226c94 64 209 49 304-4 18-10 32 19 14 29-105 59-234 71-337 2-17-12 2-38 19-27z m-12-48c-18-12 1-39 18-27 94 63 209 48 304-4 18-11 32 19 14 29-105 58-234 71-336 2z m342-229c-105 59-233 72-336 2-17-12 1-38 19-26 93 63 209 48 303-5 19-10 32 19 14 29z" horiz-adv-x="1000" />
<glyph glyph-name="video-2" unicode="&#xe80a;" d="m948 575c-35-27-72-50-109-73-1 46-1 93-3 139 0 3 0 5-1 7-2 12-10 22-25 22-213 2-572-5-785-5-33 0-33-51-1-52-3-34-7-68-9-102-1-6 1-10 3-14-5-124 3-249 2-374 0-9 4-16 10-20 4-5 10-8 18-8 207-3 561-10 767 0 3 0 5 1 7 1 12 1 24 9 23 25-1 20-1 39-2 59 35-24 71-47 107-69 2-1 4-2 6-3 15-13 45-7 44 19-6 140-1 281-7 422 8 20-22 44-45 26z m-118-323c-16 11-32 0-36-14-2-4-3-7-3-12 0-27 0-53 1-79-191-8-529-3-720 0 0 125-7 250-1 375 0 4-1 8-2 11 2 27 5 53 7 80 187 1 521 6 709 5 1-54 1-107 1-161 0-1 0-3 0-4 0-1 0-2 0-2 0-29 39-33 50-13 36 23 71 45 106 69 3-111 1-221 4-332-39 25-78 51-116 77z" horiz-adv-x="1000" />
<glyph glyph-name="facebook-2" unicode="&#xe80b;" d="m906 771c6 14-1 36-22 37-234 6-536-13-770-4-7 1-13-2-17-6-8-3-14-10-14-22 0-278-12-563 27-839 1-9 6-14 12-16 4-5 10-8 18-8 45 0 109 3 154 3 10 0 16 4 20 11 7 3 11 10 11 20v279c0 1 0 2 0 3 0 1 0 2 0 3 0 15-11 23-24 25-18 2-46 3-65 3-1 6-2 22-3 27 17 4 44 6 61 6 3 0 6 0 8 1 13-1 25 7 23 24-9 79-9 148-3 227 33 80 120 108 200 98v-39c-144-5-172-146-140-270 1-3 2-6 4-8 1-11 9-20 23-20h61v-39c-20-11-42-8-64-11-1 0-1 0-1 0-13 0-25-7-24-24 6-70 10-208 13-278 1-13 9-20 18-23 3-1 6-2 10-2 159 0 297-3 456 3 9 1 15 5 19 11 7 4 12 11 12 20 6 269-3 538-3 807 0 0 0 1 0 1z m-46-790c-146-5-272-3-418-3-2 68-6 177-10 233 26 5 52 6 75 20 8 4 11 11 11 19 1 1 1 3 1 5v76c0 16-13 23-25 23-2 1-4 1-6 1h-61c-22 96-9 205 113 200 13 0 20 7 23 16 5 4 8 10 8 19v75c0 16-12 24-25 24-114 19-227-21-272-132-2-5-2-10-1-14-6-71-6-131 1-202-22-1-54-5-75-13-11-5-19-15-17-27-1-2 0-4 0-6 4-19 7-47 10-66 2-12 14-19 25-18 1 0 1 0 2 0 16 0 41 0 57-1v-245c-33-1-87-2-120-3-36 261-25 530-24 793 222-8 506 8 725 4 0-259 8-519 3-778z" horiz-adv-x="1000" />
<glyph glyph-name="sound-2" unicode="&#xe80c;" d="m605 815c-3 2-7 3-10 4-7 5-16 6-26-2-106-80-221-149-333-222-69 0-137 0-206-5 0 0-1 0-1-1-3 1-6 0-9 0-14-4-23-20-19-34 3-11 4-21 5-33-5-84-3-169 2-254 2-20 21-29 36-25 60-7 120-7 180-2 117-72 220-163 332-242 8-6 17-6 24-2 4 1 8 3 11 7 17 15 32 32 47 49 7 4 11 9 12 15 177 224 213 567-45 747z m-353-527c-4 4-9 7-16 7-3 1-6 1-9 0-56-4-111-4-166 1-3 69-5 138-2 208 1 2 1 4 1 7 0 3 0 7 0 10 0 1 0 2 0 3 0 3 0 5 0 7-1 2-1 4-1 6 61 3 122 4 184 4 5 0 9 1 13 3 2 1 4 2 6 3 95 62 192 121 285 187-75-63-95-217-99-301-5-80-2-166 23-242 8-25 14-53 24-79-80 60-158 123-243 176z m250 134c0 18 2 44 5 74 76-44 85-147-4-182-2 36-2 72-1 108z m109-315c-7 0-12-3-16-7-32-3-42 9-52 48-8 29-20 56-28 85-2 9-3 17-5 26 154 50 138 230 5 293 17 86 54 172 134 151 144-168 96-422-38-596z m278 594c88-195 63-413-60-587-23-31 29-61 51-30 137 192 157 434 60 648-16 35-67 4-51-31z m-56-26c-13 29-55 4-42-24 72-162 52-342-50-485-18-26 25-51 43-25 112 159 129 358 49 534z" horiz-adv-x="1000" />
<glyph glyph-name="play-2" unicode="&#xe80d;" d="m7-96c0-1 0-1 0-2-1-20 11-42 32-46 16-3 33-5 49-5 7-2 15-2 24 2 278 100 518 285 724 493 2 2 3 4 4 6 11 8 18 20 18 34 0 7 0 13-1 19 2 12-2 24-15 34-229 181-488 336-774 409-5 1-9 2-14 1-1 0-2 1-3 1-41 0-49-38-49-78 0-30 4-62 3-79-12-263 2-526 2-789z m89 846c242-72 465-203 663-356-190-190-411-362-665-455-1 270-16 541 2 811z" horiz-adv-x="1000" />
<glyph glyph-name="instagram-2" unicode="&#xe80e;" d="m934 748c-1 11-9 22-24 22-263-2-525 12-787 13-1 0-2-1-3-1-1 0-2 1-2 1-14 0-25-12-25-25v-35c0-2 0-3 0-4 0-2-1-4 0-6 13-233-12-515-8-748 0-3 1-5 1-7 1-12 9-22 24-23 262-12 525-3 788 2 12 1 20 9 23 18 2 4 4 9 4 15-2 163 0 370 4 541 7 9 7 23 1 32 1 67 3 133 5 197 0 3 0 6-1 8z m-567-19c18-1 35-1 53-1-2-57 0-113 4-169-20 1-41 2-61 3 2 55 2 111 4 167z m-109 2c19 0 39-1 59-1-2-55-2-111-4-166-20 1-40 2-60 3 4 55 4 109 5 164z m-115-8v9c21 0 43 0 65 0 0-54-1-108-5-162-19 1-38 2-56 3-1 6 0 12 0 17 0 2 0 4-1 6 0 39-1 78-3 117-1 1-1 2-1 4 0 2 1 4 1 6z m732-736c-247-5-494-13-740-3-2 165 10 369 11 539 244-17 489-20 733-20-4-163-5-362-4-516z m5 566c-135 0-271 1-406 5-4 56-6 112-4 169 138-4 276-7 414-7-1-54-3-110-4-167z m-231 41c2-10 10-19 24-19h75c6 0 11 2 14 5 9 4 17 13 16 23-3 22-3 44-3 67 0 3 0 5-1 7-1 12-9 23-24 23h-72c-10 0-16-4-20-10-9-3-16-10-15-22 0-20 2-40 2-60 0-6 2-10 4-14z m76 56c0-8 1-17 1-25h-32c0 8 0 17-1 25h32z m128-45v70c0 32-50 32-50 0v-70c0-32 50-32 50 0z m-340-120c-5 1-10 0-13-2-154 6-275-143-247-297 23-120 143-184 257-179 106 5 211 70 239 176 17 63-2 131-33 186-42 75-122 108-203 116z m186-296c-21-79-105-123-181-131-83-9-164 26-203 102-67 132 63 297 206 271 5-1 9 0 13 1 111-22 196-125 165-243z m-190 205c-4 0-7 0-11-1-44 1-86-19-115-55-30-36-42-83-34-128 10-54 62-112 150-112h0c3 0 5 0 8 0 71 4 131 48 147 109 12 48-7 92-20 115-23 40-67 66-125 72z m88-176c-10-37-51-58-88-62-4 0-8 0-12 0-38 0-70 18-85 49-13 26-11 56 5 83 18 29 48 47 79 47 4 0 9 0 14-1 3-1 7-1 10 0 28-6 52-23 67-46 13-21 17-46 10-70z m-69 96c-13 6-27 4-35-9-6-11-3-28 9-34 9-4 14-7 20-14 4-4 5-12 6-17 0-32 50-32 50 0-1 33-21 60-50 74z" horiz-adv-x="1000" />
<glyph glyph-name="right-2" unicode="&#xe80f;" d="m402 840c-10 11-23 12-33 8-6-1-12-3-18-8-45-38-89-78-131-120-18-18-9-41 8-52 87-104 187-207 275-312-99-100-195-213-290-316-11-12-12-25-6-37 0-10 7-20 16-27 44-34 86-70 127-107 10-16 34-26 52-8 146 144 274 305 434 434 4 4 7 7 9 11 9 13 12 30-2 44-149 161-288 332-441 490z m-23-907c-32 28-65 56-98 82 91 102 184 211 282 306 5 5 8 11 9 16 8 12 10 29-1 43-89 106-190 211-279 316 27 26 54 51 83 76 137-144 263-297 397-443-144-119-262-264-393-396z" horiz-adv-x="1000" />
<glyph glyph-name="left-2" unicode="&#xe810;" d="m832 698c-1 11-7 21-17 28-43 34-85 69-126 106-11 17-35 26-53 8-146-143-274-305-434-434-4-3-7-7-9-11-9-12-11-29 2-44 149-161 288-332 441-490 11-10 23-12 34-8 6 1 12 4 18 8 45 38 88 78 130 120 18 18 10 42-7 52-88 105-188 208-276 312 100 100 196 213 291 317 11 11 11 25 6 36z m-357-318c-5-5-8-10-9-16-8-12-10-28 2-43 88-106 190-210 279-316-27-26-55-51-83-75-137 143-264 296-397 443 143 119 261 263 392 395 32-28 65-55 99-82-91-101-185-210-283-306z" horiz-adv-x="1000" />
<glyph glyph-name="twitter-2" unicode="&#xe811;" d="m955 533c-17 8-33 16-50 24 13 20 24 40 33 61 6 12 4 26-8 33-9 5-21 4-28-2-28-9-54-20-80-31-7 9-15 18-24 27-124 115-324 9-379-116-106 5-196 59-269 126-3 2-7 4-10 5-13 6-30 3-33-13-15-71 5-139 56-191-10 0-20 1-30 1-5 0-8 0-12-2-16 4-36-7-28-25 19-50 54-88 101-112-5 0-10 0-15 0-3 1-6 0-9-1-15-2-28-16-17-31 33-47 78-81 133-103-32-32-78-44-129-40-2 0-4 0-6 0-3 0-7-1-11-3-11-6-16-20-9-30 1-1 2-2 3-3-21 2-41 5-62 9-22 11-50-16-29-34 42-34 89-60 141-79 5-2 10-2 14-1 291-71 552 131 636 372 8 22 14 46 18 71 36 12 70 26 105 40 25 10 19 46-2 48z m-184-189c-89-205-323-366-574-297-3 1-5 1-8 1-10 4-21 8-31 13 20-1 41-1 62 0 28 0 30 36 8 42-1 0-1 1-2 1 49 10 91 36 118 78 9 13 1 25-11 30-2 1-5 3-8 4-41 12-76 33-104 60 29 3 57 8 85 15 28 7 18 45-8 43-2 1-5 2-8 2-60 4-108 33-136 77 24-1 49-1 73-1 28 0 31 34 9 41-52 37-84 86-86 142 79-63 174-109 282-110 7 0 12 2 16 5 5 2 10 7 12 13 29 85 126 159 229 144 40-6 74-25 95-57 49-72 19-174-13-246z m79 211c-2 7-4 14-7 20 8 4 16 7 23 10-4-7-8-13-12-19-3-4-4-8-4-11z m6-58c0 12-1 24-2 36 1-2 3-3 6-5 10-6 21-12 32-18-12-4-24-9-36-13z m-223 78c-33 0-33-50 0-50s32 50 0 50z" horiz-adv-x="1000" />
<glyph glyph-name="link-2" unicode="&#xe812;" d="m499 232c40 0 81 6 121 15 20 6 32 22 29 43-2 20-18 41-44 41-4 0-8 0-11-1-31-8-63-12-95-12-82 0-164 26-237 74-57 38-155 116-173 219-6 36 1 66 21 90 26 31 73 49 125 49 18 0 35-2 52-7 98-26 191-109 220-197 6-18 21-28 39-28 15 0 30 7 38 18 8 11 10 25 5 38-45 136-231 265-381 265-105 0-177-61-203-171-34-143 114-276 179-326 93-72 201-110 315-110 0 0 0 0 0 0z m314 141c-93 72-202 110-315 110-41 0-82-5-121-15-21-6-32-22-30-43 3-20 19-41 45-41l0 0c3 0 7 0 11 1 110 28 230 5 331-62 57-38 155-116 173-219 6-35-1-66-21-90-26-31-72-49-124-49-18 0-36 2-52 7-99 26-191 109-221 197-6 18-20 29-39 29-15 0-29-8-38-19-7-11-9-24-5-38 46-136 231-265 382-265 105 0 177 61 203 172 33 142-114 275-179 325z" horiz-adv-x="1000" />
<glyph glyph-name="delete-2" unicode="&#xe813;" d="m905 666c-46 38-88 79-132 119-12 11-26 11-37 5-10-5-21-21-28-29-65-72-132-143-207-207-8-7-21-6-28 2-63 73-119 151-173 230-7 11-18 15-28 14-11 0-23-7-27-8-2-2-4-3-6-4-47-36-96-69-145-102-1-1-1-1-2-2-1-1-11-5-16-15-6-10-7-23 4-35 79-86 155-177 234-264 8-8 7-20-1-27-92-79-167-172-266-244-5-4-9-9-10-14-3-9 2-22 5-27 2-3 4-6 7-8 46-39 87-81 130-121 12-11 26-11 37-6 10 5 21 20 29 28 66 72 134 141 210 204 9 7 22 6 29-3 62-74 115-153 168-233 7-10 17-14 28-14 11 1 22 7 26 8 3 1 5 3 7 4 48 35 97 67 147 100 1 0 1 1 2 1 1 1 11 6 16 15 7 10 8 23-3 35-79 89-153 181-232 271-7 8-6 20 2 28 91 80 165 176 263 250 6 4 9 9 10 14 3 10-3 22-6 27-1 3-4 6-7 8z m-81-38c-90-77-162-171-256-246-4-3-7-7-8-10-4-7-4-20-2-27 1-4 3-8 7-12 78-86 151-177 227-264 7-9 6-20-3-26-28-19-55-37-82-56-9-6-22-4-28 5-48 73-99 144-157 211-7 9-16 24-25 31-12 8-28 10-42-1-89-67-166-144-241-224-8-8-20-8-28-1-19 18-37 35-56 52-8 8-8 19 1 26 92 77 166 169 261 242 4 3 7 6 8 10 4 6 4 18 2 25-1 4-3 8-7 12-80 84-155 173-232 260-8 8-6 20 3 26 27 19 54 38 81 57 9 6 21 4 27-5 50-72 103-142 161-208 7-9 17-24 26-30 12-8 28-10 42 1 88 69 164 147 237 228 7 8 20 9 28 1 19-17 37-34 56-51 9-7 9-19 0-26z" horiz-adv-x="1000" />
<glyph glyph-name="quote-filled-2" unicode="&#xe814;" d="m315 762c-138 63-346-56-311-220 19-92 104-159 194-175 78-15 150 19 202 73-11-77-43-154-74-218-53-106-129-219-229-287-38-25-2-86 36-60 220 147 546 721 182 887z m520 0c-137 63-345-56-310-220 19-92 103-159 194-175 78-15 149 19 202 73-11-77-43-154-75-218-52-106-128-219-228-287-38-25-2-86 35-60 221 147 547 721 182 887z" horiz-adv-x="1000" />
<glyph glyph-name="musical-2" unicode="&#xe815;" d="m959 309c-123 43-185 154-243 263-41 75-84 151-148 209-31 29-65 49-107 60-19 5-113 24-111-23 6-116 5-233 3-350-1-58-3-116-4-174-1-51 5-107-3-158 1 7-92 17-99 17-37 1-74-4-108-19-85-36-105-132-45-207 113-140 306-67 413 39 1 2 3 3 4 5 4 5 7 11 8 19 6 172 4 345 4 517 110-99 202-221 355-249 4-2 8-4 14-4 15 0 29-3 45-6 11-2 22 1 29 9 17 11 18 44-7 52z m-445 278c-24 19-57-7-48-29 0-185 3-371-3-556-83-81-221-144-318-48-23 24-40 62-23 93 21 42 80 51 125 53 41 0 78-14 113-37 21-13 40 5 41 24 1 3 2 5 2 8 0 181 9 363 8 544 0 50-7 103-3 152 1 6 74-20 80-22 26-14 50-33 71-55 72-77 113-178 168-267 24-38 51-76 84-108-115 55-194 169-297 248z" horiz-adv-x="1000" />
<glyph glyph-name="linkedin-2" unicode="&#xe816;" d="m294 430c-1 11-8 20-22 20-45 0-90 0-135 2-15 0-23-12-23-23-2-4-4-8-4-14 4-136 22-272 24-408 0-12 7-18 15-21 4-2 7-3 12-4 38-3 76-6 114-9 5 0 9 1 12 3 12-1 24 7 24 21-3 143-11 285-16 427 0 3 0 5-1 6z m-114-404c-3 127-18 253-22 380 30-1 61-1 91-1 5-129 11-257 14-385-27 2-55 4-83 6z m8 721c-1 0-3 0-4-1-70-3-120-59-124-129-3-70 60-126 130-126 66 0 123 51 133 113 11 80-49 152-135 143z m18-209c-115-30-130 161-24 164 2 0 4 0 6 0 1 0 2 0 3 0 3 0 5 0 8-1 5 0 8 0 12 1 88-9 84-140-5-164z m681-131c-77 116-205 152-339 125-1 17-3 33-6 49-1 11-13 17-23 17-2 0-4 0-6 0-36-3-72-4-108-5-14 0-21-9-22-20-1-2-1-3-1-5-13-185-16-369-11-554 0-17 16-24 29-21 48-3 95-4 143-2 8 1 14 4 18 9 4 4 6 10 5 17-11 89-81 362 75 360 1-1 3-1 5-1 193 8 101-249 109-371 1-17 17-24 30-22 2 0 4-1 6-1 41-5 81-8 122-9 16-1 23 11 23 22 0 3 1 5 1 8-9 141 31 282-50 404z m2-388c-30 2-59 4-88 7-7 153 70 381-150 395-201 2-153-257-134-385-33-1-67 0-100 1-3 171 0 341 10 511 24 1 48 2 72 4 2-14 3-28 3-42 0-6 3-11 6-14 4-10 14-17 27-13 138 35 255-3 327-123 62-104 18-222 27-341z" horiz-adv-x="1000" />
<glyph glyph-name="graduate-2" unicode="&#xe817;" d="m548 759c-3 1-5 1-8 1-5 2-11 3-17 2-184-26-356-98-509-202-23-15-15-45 3-54 2-5 6-9 11-12 54-34 110-59 168-79 0-3-1-7-1-12 0 0 0 0 0-1-1-3-3-6-3-11-6-56-8-112-6-169 1-19 15-28 30-29 34-17 70-30 106-40 3-43 6-86 9-129-42-22-64-61-56-108 1-11 6-20 15-26 22-14 48-22 74-19 1 0 1 0 1 0 4 0 7 0 10 1 28 8 53 25 66 52 2 5 3 10 3 15 2 5 4 9 4 15-1 23-8 46-25 62-10 8-21 14-33 17-3 35-5 71-8 106 147-26 300 0 432 78 6 4 10 9 12 14 5 5 8 12 8 21 0 50 0 101 3 151 0 4 0 6 0 9 0 2 0 4 0 6v15c0 1 0 2 0 2 47 19 94 41 140 65 9 4 13 11 15 18 8 10 10 25-3 37-124 111-281 169-441 204z m-303-514c-1 49 2 97 6 146 2 2 2 5 3 7 17-4 34-8 51-12 4-57 8-113 12-170-24 8-48 17-72 29z m139-275c1-1 1-2 2-3 0 0 1-5 2-5 0-1 0-2 0-2 0-2 0-4 0-6 0 0 0-1 0-1-1-3-3-6-5-9 0-1 0-1-1-1-1-2-3-4-5-5 0 0 0-1-1-1-2-1-4-3-6-4-1 0-3-1-4-2-1 0-2 0-4-1-11-1-20 1-29 5-1 18 11 29 29 38 2 1 4 3 6 4 1 0 4 0 4 0 1 0 4-2 5-2 2-1 4-3 5-3 1-1 2-2 2-2z m394 433c-3-46-3-93-3-139-122-69-263-92-397-65-4 59-9 117-13 176 55-9 110-15 166-19 3 0 6-1 9 0 82 10 161 30 238 57 0-1 1-2 1-3-1-2-1-4-1-7z m-238 12c-1 0-2 0-3 0-1 0-2 0-3 0-51 4-102 9-153 17 44 41 89 81 135 120 30 25-13 66-42 42-54-46-107-93-159-142-3-1-5-3-7-6-80 18-156 45-228 86 137 87 287 147 448 171 1 0 3-1 4-1 138-31 275-77 387-165-120-59-246-105-379-122z" horiz-adv-x="1000" />
<glyph glyph-name="mail-1" unicode="&#xe818;" d="m467 366l-449 210 0 109 893 0 0-109z m0-123l444 210 0-437-893 0 0 438z" horiz-adv-x="928" />
<glyph glyph-name="right-arrow-black-1" unicode="&#xe819;" d="m399 684q31 31 74 31t73-31l334-335-334-334q-30-30-73-30t-74 30q-31 31-31 74t31 74l82 82-377 0q-44 0-74 31t-30 73q0 44 31 74t73 31l377 0-82 82q-31 32-31 75t31 73z" horiz-adv-x="880" />
<glyph glyph-name="record-1" unicode="&#xe81a;" d="m313 663q130 0 221-92t91-221-91-221-221-91-222 91-91 221 91 221 222 92z" horiz-adv-x="625" />
<glyph glyph-name="left-arrow-light-2" unicode="&#xe81b;" d="m971 397l-2 1-379 420c-8 9-17 14-27 14-22 0-43-21-44-45l-1-3c-1-2-1-3-1-5-6-54-7-106-7-150l0-12h-459c-26 0-36-17-39-27l-1-2-1-2c-7-7-10-17-10-27v-417c0-11 3-20 10-28l1-1 1-3c3-10 13-26 39-26h459l0-12c0-44 1-97 7-151 0-1 0-3 1-4l1-4c1-24 22-45 44-45 10 0 19 5 27 14l379 421 2 1c18 8 30 27 29 45l0 1 0 1c1 18-11 38-29 46z m-374-379l0 31c-1 26-1 52-1 78 0 28-22 41-43 41v12l-1-12-1 0-1 1c-5 1-8 1-12 1h-452v360h452c4 0 7 1 11 2l2 0h1c22 0 44 13 44 41 0 26 0 52 1 78l0 31 299-332-299-332z" horiz-adv-x="1000" />
<glyph glyph-name="woman-2" unicode="&#xe81c;" d="m810 603c-67 110-184 144-306 121-137 56-267 13-340-116-34-60-50-130-54-198-7-111 6-228 16-338 0-4 1-7 3-10 0-6 4-12 12-14 97-27 194-35 292-11 3 1 5 1 7 2 2 1 4 2 6 3 0-5 0-11-1-16-3-22 30-32 33-10 4 27 4 52 0 79 33-5 67-6 98-6 4 0 8 1 10 3 5 1 9 1 13 1 4-24 16-46 33-65 15-17 39 7 25 24-13 14-22 31-24 50 30 11 53 32 70 58 68-11 135 8 184 57 5 6 6 12 4 17 1 2 1 4 1 6 0 123-16 255-82 363z m-229-476c-4 0-7-1-10-3-83-1-179 8-230 82-44 63-48 86-52 151 143 5 295 39 416 114 0-1 1-2 1-3 27-101 22-339-125-341z m140 65c37 81 38 193 22 269 9-6 19-11 29-16 20-10 37 20 17 30-21 10-40 22-59 36-1 2-3 3-5 4-5 3-11 3-17-1-124-83-284-120-433-122-4 1-8 1-12 0-8 0-17 0-26 0-22 0-22-34 0-35 6 0 12 0 17 0 5-76 11-103 61-175 31-44 77-68 127-80 0-1 0-2 0-3 1-7 2-13 3-20-6-2-12-5-18-8-1 0-1 0-2 0-89-23-177-16-265 8-8 91-11 182-15 273-3 68 6 133 29 196 23 60 62 114 118 145 64 37 140 23 204-4 5-1 9-1 12 0 1 0 1 0 2 0 118 24 219-14 280-120 56-97 67-219 67-329 0-1 0-2 1-3-38-35-86-50-137-45z m-306 127c-1 10-7 18-17 18-9 0-19-8-17-18 1-13 4-27 7-40 6-22 39-13 34 9-3 10-5 21-7 31z m213-4c-3 11-4 21-5 32-1 9-8 17-18 17-8 0-18-8-17-17 1-14 3-27 6-41 5-22 39-12 34 9z m-143-63c19-12 43-14 64-6 9 4 15 12 12 22-2 8-12 15-21 12-14-5-25-6-38 2-18 13-36-18-17-30z m122-26c-38-33-90-30-134-9-20 10-37-20-17-30 58-29 125-29 176 14 17 15-8 39-25 25z" horiz-adv-x="1000" />
<glyph glyph-name="right-arrow-2" unicode="&#xe81d;" d="m62 295c203-1 495-10 698-6-22-22-44-44-65-67-55-61 35-151 90-90 62 67 127 130 195 191 31 29 22 67-3 89-4 6-9 12-17 17-62 45-122 94-181 143-62 53-153-37-90-90 26-22 53-44 79-65-205-4-500 5-706 5-83 0-82-127 0-127z" horiz-adv-x="1000" />
<glyph glyph-name="rocket-2" unicode="&#xe81e;" d="m683 339c-1 1-1 1-2 1 2 75 0 141-9 203-12 86-38 209-130 285-3 3-7 5-12 5-50 0-141-202-142-204-36-89-57-174-64-262-1-6-1-13-1-19-1-1-3-1-4-2-99-47-158-154-162-295l-1-3c-3-7-2-13 1-19 4-6 12-9 20-9 9 0 17 4 22 12 1 3 3 5 4 9 26 60 78 108 146 137 1 0 2 0 3 0 9 0 17 0 26 0l6 0v-53c0-2 0-4 0-6 0-11 6-20 17-23 3-1 6-2 9-2l0 0c-4-70 33-118 72-170 8-11 17-23 27-36 3-8 11-12 21-12 10 0 18 6 22 15 8 20 17 38 26 56 21 43 41 84 39 137 10 2 20 9 21 22 2 25 3 49 3 78l4 0c1 0 1 0 2 0 79-12 115-81 123-141 2-14 14-22 25-22 10 0 18 6 20 15 2 3 2 6 3 9 14 132-37 242-135 294z m-468-199c13 53 43 117 107 156 1-25 3-51 6-77-45-20-83-46-113-79z m319-181c-3-6-6-11-9-17-2 2-4 5-6 7-32 41-66 83-64 135 6-1 11-2 18-3 5-26 16-50 34-74 3-9 12-16 22-16 5 0 11 3 15 7 5 5 10 11 15 17-7-19-16-37-25-56z m-13 119c8-1 17-1 25 0-5-9-10-17-15-24-4 7-7 15-10 24z m72 49c-53-7-108-4-163 10v41c56 1 112 3 164 4 0-16 0-35-1-55z m34 101c-7-2-35-5-155-5-45 0-85 1-98 1-22 196 30 382 154 553 71-72 91-179 101-264 9-83 8-173-2-285z m46-3c2 21 4 43 5 64 43-29 71-69 86-122-24 28-55 48-91 58z m-88 318c-15 20-36 31-60 31-35 0-70-24-89-62-9-20-15-42-15-68-1-29 11-61 31-82 16-16 35-25 55-25 8 0 17 2 25 4 24 9 46 30 60 59 17 37 21 82 9 114-4 11-9 21-16 29z m-29-104c-5-21-23-42-42-47-17-5-31 2-40 20-10 22-6 55 3 76 6 13 28 38 45 38 2 0 4 0 6-1 28-11 34-58 28-86z" horiz-adv-x="1000" />
<glyph glyph-name="world-2" unicode="&#xe81f;" d="m704 716c-85 48-185 56-280 61-31 2-67-10-96-19-36-10-69-27-99-50-69-53-108-134-129-217-18-71-24-152-14-230 0-3 0-7 1-11 12-79 42-155 96-213 172-187 520-142 675 43 98 116 96 271 39 406-40 95-101 179-193 230z m-503-112c50 79 131 113 217 119-55-40-97-92-126-152-42-8-84-20-125-33 9 22 20 45 34 66z m-65-322c-6 65-3 132 12 196 39 14 80 27 121 37-31-91-35-193-15-288-41 10-80 25-117 46 0 3-1 6-1 9z m236-299c-121 32-194 117-223 228 38-17 78-30 119-39 23-72 61-138 112-191-3 1-6 2-8 2z m-49 180c38-5 76-7 114-8 0-55 3-111 8-166-56 45-97 106-122 174z m114 41c-44 1-88 4-131 11-25 103-19 217 21 312 40 7 81 12 122 15-5-113-12-225-12-338z m14 388c-32-2-64-5-96-10 25 42 58 78 99 105 0-31-1-63-3-95z m258 63c44-29 80-71 108-118-55 21-113 36-171 45-28 48-63 93-101 133 58-10 113-27 164-60z m-205 30c29-29 55-61 78-96-27 3-54 4-81 4 2 31 3 61 3 92z m-5-142c38 0 76-2 114-6 30-60 50-124 55-193 3-43-2-84-14-123-48-8-97-13-147-15-7 0-13-1-20-1 0 113 7 226 12 338z m-5-546c-5 53-7 106-7 158 49 1 98 5 146 12-31-66-80-123-139-170z m250 48c-59-41-130-65-203-73 67 58 120 125 150 204 62 11 124 26 185 46-21-70-66-132-132-177z m142 232c-1 0-2 0-3 0-57-20-116-35-176-47 8 32 12 65 12 100 0 68-17 135-45 197 57-12 113-29 166-54 3-1 7-2 10-2 11-25 19-51 26-76 11-40 14-80 10-118z" horiz-adv-x="1000" />
<glyph glyph-name="star-1" unicode="&#xe820;" d="m929 489q0-12-15-27l-203-197 48-279q1-4 1-12 0-11-6-19t-17-9q-10 0-22 7l-251 132-250-132q-13-7-23-7-11 0-17 9t-6 19q0 4 1 12l48 279-203 197q-14 15-14 27 0 21 31 26l280 40 126 254q11 23 27 23t28-23l125-254 280-40q32-5 32-26z" horiz-adv-x="928.6" />
<glyph glyph-name="clock-2" unicode="&#xe821;" d="m769 584c12 16 22 33 28 52 1 2 1 4 1 6 1 6-1 13-7 18-27 25-58 47-91 64-13 6-24 1-30-8-16-17-30-36-40-57-26 9-53 15-79 19v37h23c1 0 2 1 3 1 1 0 2-1 3-1 13 0 22 11 23 24 2 20 8 56-5 74-4 7-10 12-20 13-94 3-187-2-281-2-5 0-10-2-14-5-21-18-21-108 14-107 8 0 16 0 24 0v-26c-7 0-12-2-15-6-33-8-63-21-88-38-5 4-10 8-14 13-9 8-24 8-33 0-9-9-9-24 0-33 3-4 7-7 10-10-85-82-114-219-98-343 26-195 163-352 365-366 188-14 373 116 444 286 64 154-5 302-123 395z m-74 90c18-11 36-24 53-37-4-10-10-18-17-26-18 11-38 22-58 31 6 11 14 22 22 32z m-376 84c-1 7-2 13-2 20 80 0 160 4 241 2 0-6 0-12 0-18h-30c-1 0-2 0-2 0-1 0-2 0-2 0-69 0-137-3-205-4z m185-43v-30c-45 4-91 5-137 3v25c46 0 92 2 137 2z m45-758c-197-46-364 85-411 271-43 169 12 385 208 413 1 0 1 0 1 0 217 7 504-52 522-315 13-182-157-330-320-369z m0 303c-59 79-141 141-227 188-2 1-3 1-5 2-14 6-34-9-23-25 54-81 111-159 187-220 4-4 9-5 13-5 4-2 9-3 14-2 21 5 36 20 43 40 1 3 1 5 1 7 1 5 1 10-3 15z m-35-17c0 0-1-1-2-2-1-1-2-2-3-3 0 0 0 0 0 0-1-1-3-2-4-2 0-1 0-1-1-1 0 0 0 0-1 0 0 0 0-1-1-1-50 41-91 89-129 140 53-36 103-78 142-129-1 0-1-1-1-2z m69 355c-96 29-214 45-305-9-76-44-114-125-116-210-1-46 2-100 15-144 11-39 26-81 47-116 93-160 289-165 433-75 142 89 224 273 120 421-46 65-119 110-194 133z m52-516c-125-84-289-74-373 59-75 118-91 317 29 412 137 66 346 8 443-104 108-124 17-289-99-367z m83 230c-19 5-38 6-58 6-26 0-26-40 0-40 16 0 32-1 47-5 25-6 36 32 11 39z m-410-19h-45c-26 0-26-40 0-40h45c25 0 25 40 0 40z m162 175c12 3 16 14 14 25-2 14-1 28-1 42 0 26-40 26-40 0 0-18 0-35 3-53 1-11 15-16 24-14z" horiz-adv-x="1000" />
<glyph glyph-name="shopping-2" unicode="&#xe822;" d="m914 186c-195-21-391-52-587-28-1 1-2 2-4 2-17 7-23 18-23 34 16 24 52 23 77 21 35-3 69-3 104-2 91 1 182 7 272 18 50 7 99 14 149 23 15 3 21 15 19 27 0 1 1 3 1 4 2 106 6 212 16 317 2 17-10 25-22 26-3 1-7 2-10 1-229-13-458-16-686-19-1 2-3 3-5 5-40 31-85 53-133 67-34 10-48-42-15-52 126-36 182-145 206-266 8-37 11-74 14-111 0-2-31-27-35-33-8-14-9-30-5-46 11-46 49-66 93-73-8-10-14-22-19-36-1-5-2-9-1-13 0-25 7-49 26-67 19-19 46-25 72-26 3 0 5 0 8 0 1 1 2 0 3 1 47 7 81 42 86 90 1 18-3 33-12 47 74 1 147 7 221 14-7-9-13-19-16-30-19-60 40-103 96-106 3 0 6 0 8 1 1 0 2 0 3 0 47 8 81 43 86 90 2 25-8 46-24 62 12 1 24 3 37 4 34 4 34 58 0 54z m-46 117c-43-8-87-14-131-19 0 20 0 41-1 61 45 0 89 1 133 0 0-14-1-28-1-42z m3 96c-46 1-91 1-137 0-1 16-2 32-3 48 48 1 95 1 142 1-1-16-1-33-2-49z m10 175c-2-24-3-48-5-72-49 0-99 0-148-1-2 22-4 44-6 66 53 2 106 4 159 7z m-198-296c-51-5-101-8-152-10-4 23-7 46-10 68 54 4 107 6 161 8 1-22 1-44 1-66z m-3 120c-56-2-111-4-166-8-3 17-5 35-7 52 57 1 114 3 170 4 1-16 2-32 3-48z m-12 167c2-22 4-43 6-65-58-1-116-3-173-4-3 21-5 43-7 64 58 1 116 3 174 5z m-191-299c-46 0-91 0-137 2-1 17-3 33-5 50 44 6 88 11 132 14 3-22 7-44 10-66z m-17 120c-44-4-89-9-134-15-4 23-9 46-16 69 48 0 95 0 143 1 2-19 5-37 7-55z m-203 171c61 0 122 1 183 2 2-21 4-43 6-64-52-1-104-1-156-1-9 22-20 43-33 63z m161-544c0 0 0 0 0 0-30 2-44 12-44 40 9 24 27 34 49 36 21-5 38-15 37-39 0-22-23-33-42-37z m387 16c-1 0-1 0-1 0-30 2-44 12-43 41 8 23 26 33 49 35 20-5 37-15 37-39-1-22-23-33-42-37z" horiz-adv-x="1000" />
<glyph glyph-name="search-2" unicode="&#xe823;" d="m441 678c-124 0-225-102-225-226s101-225 225-225 226 101 226 225-102 226-226 226z m0-387c-88 0-161 72-161 161s73 161 161 161 161-72 161-161-72-161-161-161z m381-256c-75 108-58 70-129 179 58 63 94 146 94 238 0 58-23 121-34 146-50 122-166 194-309 194-52 0-106-10-157-28-136-51-194-202-190-329 4-179 162-329 344-329 43 0 85 8 123 23 34-72 64-132 101-201 0 0 14 13 78 57s79 50 79 50z m-661 401c-2 104 43 227 149 267 43 16 90 24 134 24 118 0 209-56 249-154 19-44 30-89 30-121 0-155-127-281-282-281-148 0-276 121-280 265z m450-286c15 9 29 19 43 29 30-45 62-88 94-132-22-14-43-29-64-45-25 49-50 99-73 148z" horiz-adv-x="1000" />
<glyph glyph-name="back-2" unicode="&#xe824;" d="m62 388c54-29 107-66 159-101 54-38 111-77 170-108 6-3 12-5 17-5 8 0 15 4 21 10 12 11 16 32 15 46 0 15-1 58 1 72h0c173 0 320-94 452-197 6-5 14-7 22-7 15 0 29 10 35 24 3 10 1 21-8 30-1 3-2 5-3 8-110 184-248 383-502 407-1 22-3 73-6 105-1 3-2 6-3 9-3 16-16 27-31 27-6 0-12-2-18-6-57-40-116-89-173-136-48-40-97-80-145-115-3-2-5-5-7-8-9-8-14-19-13-30 1-11 7-19 17-25z m78 34c37 27 74 60 111 91 40 35 80 70 121 99 1-24 1-58 2-77 0-21 15-31 30-33 3 0 5-1 7-1 191-8 306-125 391-247-126 79-239 116-354 116-10 0-20 0-30-1-10 0-18-4-24-11-5-4-9-11-11-18-3-19-6-52-7-76-41 24-81 52-120 80-38 27-76 54-116 78z" horiz-adv-x="1000" />
<glyph glyph-name="alert-2" unicode="&#xe825;" d="m474 213c-13-4-23-13-31-28-7-16-10-29-7-42 1-8 5-17 9-24 12-18 31-28 53-28l0 0c12 0 24 3 35 9 17 9 30 25 33 42 3 15-1 30-11 42-19 23-56 37-81 29z m48-62c0-2-4-7-12-12-9-6-22-3-28 6-3 5-3 14 1 20 1 2 3 4 8 4 3 0 6-1 9-2 7-1 12-4 17-8 2-2 5-5 5-8z m34 447c0 0 0 0 0 0-1 0-2 1-4 1-38 4-77 8-116 9l-1 0c-4 0-8-1-12-3-11-2-19-12-19-24-1-64 9-128 20-189 7-45 15-91 18-136 1-9 5-16 12-21 5-4 10-6 17-6h47c11 0 20 7 24 17 2 4 3 7 3 11 5 41 10 84 14 124 8 63 15 127 21 191 1 9-2 15-5 18-5 5-12 8-19 8z m-64-317c-4 38-10 77-17 114-8 52-18 106-19 160 23-1 47-3 70-5-5-56-12-113-19-167-4-34-8-68-11-102l-4 0 0 0z m367 142c5 8 12 19 20 32 13 22 27 50 30 58 2 5 2 10 0 15-3 5-7 9-12 11-4 1-8 2-12 4-23 8-51 19-78 21 11 33 12 73 10 97-1 5-3 10-8 14-4 3-9 5-15 4-28-4-63-9-97-18-1 6-2 11-2 17-4 27-8 54-19 81-3 8-12 13-21 12-32-5-58-27-81-46-4-3-7-6-10-8-13 21-27 41-41 61-5 7-10 14-14 21-4 6-10 9-17 9s-13-3-17-9c-6-10-13-20-19-31-10-17-20-33-31-47-3-3-5-5-6-6-3 1-8 4-11 6-23 13-48 32-70 50-9 7-22 5-28-4-4-4-5-10-4-15-1-6-5-21-11-46-1-4-1-7-2-8-1-6-1-11-2-16-1-7-2-17-4-19 0 0-2-1-7-1-2 0-3 0-5 0-18 2-38 7-57 11-10 3-20 5-30 7-7 2-13 0-18-5s-7-12-6-18c1-3 2-9 3-18 6-36 10-60 13-77-34-4-78-19-93-25-6-2-10-7-12-14-1-6 0-13 5-18 6-6 41-56 54-78-20-17-59-49-73-54-8 1-16-1-20-8-7-8-5-21 3-28 8-5 20-12 34-19 15-7 48-24 55-34-7-17-39-68-51-79-5-3-10-7-12-14-2-10 4-21 15-24l0 0c9-3 22-4 38-5 17-2 52-5 63-11 0-19-11-78-17-92-4-4-6-11-5-17 2-11 12-18 23-16l0 0c0 0 0 0 0 0 12 1 24 6 38 11 17 6 36 13 51 13 5 0 9-1 12-3 9-5 13-51 15-68 1-12 2-23 3-31 2-9 10-16 20-16 7 0 7 0 44 29 8 6 15 12 16 12 11 9 27 21 37 16 10-9 44-56 49-70 0-7 3-15 10-19 3-2 7-2 10-2 7 0 14 3 17 9l0 0c0 0 0 0 0 0 5 8 10 17 14 27 12 25 28 58 47 59 12-3 58-30 69-41 2-7 6-13 13-15 10-4 22 1 26 11 0 3 3 8 13 64 3 14 5 24 7 33 4-1 8-2 12-3 25-7 54-15 79-15l0 0c4 0 8 0 11 0 11 2 19 11 18 22 0 5-3 21-13 66-2 12-5 24-6 34 6 2 12 4 18 5 25 8 50 15 74 16 7 0 13 4 17 10s4 12 1 19c-13 27-33 55-52 81 8 5 18 11 30 20 48 34 52 41 54 44 4 8 3 18-4 25-23 22-51 38-78 54z m-36-117c-3 0-6-2-8-4-9-6-11-19-4-28l0 0 0 0c0 0 0 0 0 0l4-5c15-20 31-41 44-62-19-4-36-9-54-14-12-4-23-7-34-10-19-5-16-21-12-39 2-10 4-23 7-37 3-12 6-27 8-39-16 2-35 7-54 12-12 3-23 7-34 9l-4-20-20 2c-1-6-8-45-14-75-27 19-64 37-77 38-40 0-62-38-78-71-17 26-40 56-49 61-8 4-17 6-26 6-23 0-42-14-56-25-1 0-8-6-17-13-1-1-2-1-3-2-4 38-9 79-36 93-9 4-19 7-30 7-20 0-42-7-61-14 8 34 16 83 5 98-14 18-46 23-90 27 18 26 46 70 44 87-5 27-38 46-72 63 33 22 70 57 70 57 13 14 5 29-25 72-6 9-13 20-20 29 24 7 53 14 70 14 4 0 6 0 7 0 10-3 21 3 24 14 2 7 0 14-5 18-4 13-11 56-15 80 0 0 1 0 1 0 20-6 41-11 62-13 3 0 6 0 9 0 43 0 47 33 50 54 1 5 2 9 3 14 0 1 0 3 1 7 2 8 4 15 6 22 15-12 32-24 48-33 13-7 22-12 33-12 16 0 26 12 34 21 14 16 25 35 35 53 1 1 2 2 3 4 16-25 33-50 48-75 3-4 7-8 13-9 5-1 11 0 15 3 10 7 20 15 30 23 15 13 30 25 46 32 4-17 7-35 10-54 2-13 4-27 7-40 1-6 4-10 9-13s11-4 16-2c30 9 63 15 91 19 0-30-7-64-19-82-4-7-4-16 1-23 4-7 13-10 21-7 4 1 8 1 13 1 21 0 46-8 69-17-13-23-34-59-43-70-5-1-9-4-11-9-6-9-3-21 7-27 6-4 13-7 19-11 20-12 40-24 58-37-21-16-58-42-70-48z" horiz-adv-x="1000" />
<glyph glyph-name="information-2" unicode="&#xe826;" d="m506 843c-95 0-187-24-267-70-70-41-141-128-179-196-73-130-71-310 6-460 39-77 98-139 172-179 69-37 179-80 265-80 265 0 483 211 496 481 0 5 0 9 0 14 2 87-38 187-50 215-71 170-241 275-443 275z m429-501c-12-236-201-420-432-420-69 0-167 36-234 72-63 35-113 87-146 152-67 131-70 288-7 399 33 59 95 138 155 172 70 40 151 62 235 62 176 0 323-91 384-236 23-52 46-130 45-189 0-4 0-8 0-12z" horiz-adv-x="1000" />
<glyph glyph-name="down-2" unicode="&#xe827;" d="m988 528c-38 45-78 89-120 131-18 18-41 9-52-8-104-87-207-187-311-275-100 99-213 195-316 290-12 11-25 11-36 6-11-1-21-7-28-17-33-43-69-85-106-126-17-10-26-34-8-52 143-146 304-273 433-433 3-4 7-7 11-9 12-9 30-12 44 1 161 149 331 288 489 441 10 10 12 22 8 33-1 6-4 12-8 18z m-510-420c-119 143-263 261-395 392 28 32 55 64 82 98 101-91 210-184 305-282 5-5 10-8 16-9 12-8 29-10 43 2 105 88 210 189 315 278 26-27 51-54 75-83-143-136-295-263-441-396z" horiz-adv-x="1000" />
<glyph glyph-name="angle-down-1" unicode="&#xe828;" d="m600 439q0-7-6-13l-260-260q-5-5-13-5t-12 5l-260 260q-6 6-6 13t6 13l27 28q6 6 13 6t13-6l219-219 220 219q5 6 13 6t12-6l28-28q6-5 6-13z" horiz-adv-x="642.9" />
<glyph glyph-name="user-2" unicode="&#xe829;" d="m376 503c36-25 77-39 118-39 54 0 107 23 149 64 12 12 24 24 26 27 2 2 3 4 4 6 41 77 34 157-18 219-13 14-24 27-28 31-2 2-5 3-8 5-36 19-73 28-110 28-50 0-98-17-144-52-2-2-4-4-5-6-3-4-14-18-23-32-60-88-44-192 39-251z m29 237c1 1 1 2 2 3 3 5 16 16 32 24 34 17 72 21 110 11 18-5 42-20 54-34 32-36 43-78 30-121-5-15-13-30-16-33-29-40-70-61-116-61-56 0-109 32-129 79-11 25-21 76 33 132z m493-557c-1 10-1 19-1 29-1 29-2 59-4 89-1 11-3 25-6 38-5 22-13 39-24 53-19 22-57 40-88 42-22 2-44 1-66 1-11-1-22-1-33-1l-118 1c-22 1-45 1-68 1-60 0-110-1-156-3-45-2-86-5-125-9-4 0-9-1-13-2-40-12-73-40-89-76-1-4-3-7-3-11-2-4-3-9-3-14-1-21-1-43-2-64-2-98-4-200 2-300 0-12 7-23 17-29 6-5 14-7 22-7 43 0 88 0 134 2l0-34c0-6 1-11 3-15 5-13 16-21 31-21 67 0 135-1 203-2 68 0 135-1 203-1h0c12 0 22 6 28 16 6 10 6 23 1 33l0 5c36 2 72 2 106 2 7 0 13 2 18 5 0 0 1 0 1 0l0 0c10 0 19 3 26 10 6 6 9 14 9 24 0 64-2 129-4 192l-1 46z m-226-266c-54 0-107 1-161 1-56 1-111 1-167 2 0 35-1 79-1 122 0 57-1 113-1 152 0 35-43 42-61 24-6-6-9-14-9-24 0-39 0-95 1-151l0-54c-36-1-72-1-103-2-4 91-2 183 0 272 0 19 1 38 1 57 9 19 23 31 42 37 63 7 131 11 214 12 63 1 126 0 189-1l47 0c12 0 24 0 36 0 12 0 24 0 36 0l13 0c22 0 42-1 55-14 13-13 17-27 18-46 0-13 1-25 2-37 1-15 2-30 3-45 2-49 4-101 6-166 0-27 1-55 1-83-28 0-60-1-92-2-1 73-5 167-9 228-2 35-45 41-62 23-6-6-9-15-8-24 4-72 9-199 10-281z" horiz-adv-x="1000" />
<glyph glyph-name="plus-2" unicode="&#xe82a;" d="m959 512l-3 1-2 2c-8 6-18 10-30 10h-268l0 18c-2 35-3 70-5 105-1 48-3 99-6 148-2 30-24 43-43 46l-3 1c-6 2-11 2-15 2h-234c-25 0-36-14-42-26l-1-4-4-3c-10-8-15-20-15-35 1-90 10-180 19-256l3-19-89-7c-48-3-96-7-144-10-8-1-15-3-22-7l-2-1-2-1c-21-5-37-25-37-46v-13c0-8 2-15 6-22l2-4 0-3c5-66 6-131 6-199 0-32 24-41 34-44l3 0c5-3 11-4 18-4h246l0-18c1-28 2-56 3-85 1-44 3-90 3-136 0-31 24-41 34-44l2 0c6-3 12-4 19-4h227c13 0 24 4 32 12l4 4c8 8 12 19 12 32 0 70 0 152-4 233l-1 20h271c30 0 43 21 45 42l1 4 2 4c4 7 7 15 7 25v240c0 25-15 36-27 42z m-70-261h-279c-36 0-44-30-45-39l-1-3c-2-6-2-12-2-18 5-82 6-161 7-222l0-19h-138l-1 18c0 23-1 45-2 67-2 44-3 90-3 134 0 5-1 9-2 13l-1 3 0 3c1 14-4 28-13 37-8 8-19 13-33 13h-252l0 18c-1 40-2 80-5 117l-1 19 87 6c48 4 96 7 143 10 5 1 9 2 13 3l4 1 3 0c15-1 29 4 36 12 7 8 9 18 7 30-12 103-22 189-25 276l-1 19h166l1-18c1-27 2-53 3-80 2-53 4-107 7-160 0-3 1-6 2-10l0-5c0-23 15-47 46-47h279c0 0 0-178 0-178z" horiz-adv-x="1000" />
<glyph glyph-name="lock-1" unicode="&#xe82b;" d="m179 421h285v108q0 59-42 101t-101 41-101-41-41-101v-108z m464-53v-322q0-22-16-37t-38-16h-535q-23 0-38 16t-16 37v322q0 22 16 38t38 15h17v108q0 102 74 176t176 74 177-74 73-176v-108h18q23 0 38-15t16-38z" horiz-adv-x="642.9" />
<glyph glyph-name="minus-2" unicode="&#xe82c;" d="m993 487c0 30-22 42-41 43l-2 0c-5 2-10 3-16 2-227-19-455-21-651-21-40 0-79 0-118 0-31 0-63 1-94 1-6 0-11-1-16-3l-2-1-1 1c-4 0-7 1-11 1-12 0-24-5-32-13-7-8-10-18-9-30l16-214c2-29 24-42 45-44l2 0c4-1 9-2 13-2 311 0 591 1 877 11 21 0 37 13 42 33 3 7 4 14 3 21-4 72-5 143-5 215z m-92-181c-273-8-553-9-793-9h-6l-9 125 65-1c38 0 75 0 113 0 189 0 408 2 626 18l6 1 1-7c0-39 1-80 3-121l0-6-6 0z" horiz-adv-x="1000" />
<glyph glyph-name="cog-2" unicode="&#xe82d;" d="m492 194l0 0c12 0 24 1 35 3 56 8 107 41 139 87 26 40 35 86 23 130-19 77-91 127-182 127-21 0-42-2-62-8-3 0-5 0-8-1-5-2-11-4-17-7-8-3-16-7-23-11-2-1-4-2-6-4-65-40-97-105-87-179 14-94 104-137 188-137z m-63 267c23 13 50 20 77 20 50 0 109-25 127-93 6-24 1-47-14-68-28-39-86-63-127-66-4 0-8 0-12 0-65 0-99 40-108 77-12 42 2 99 57 130z m529 37c-8 25-16 50-24 75-1 3-2 6-4 9l0 0c-3 14-14 24-28 26-2 1-4 1-6 2-30 5-59 12-91 19-1 26-2 52-2 78-1 2-1 5-2 7-1 7-5 14-12 18-47 31-97 54-147 70-6 2-12 2-18-1-5-1-9-3-12-6-9-8-18-16-27-24-15 19-32 39-47 59-1 2-3 3-5 5-8 11-21 16-36 13 0 0 0 0 0 0-3 0-6 0-10 0-25-5-51-9-77-13-43-6-88-13-132-22-14-3-24-13-26-27-2-3-3-6-4-10l-2-11c-4-22-9-43-12-65-32 1-64 3-99 7-15 1-26-8-28-21 0-1 0-1-1-2-20-50-44-97-66-136-5-10-4-22 3-30 1-2 2-4 3-5 13-17 27-35 42-54-20-14-38-29-56-43l-10-8c-3-2-5-4-7-7-12-8-17-22-13-36 12-43 26-86 40-127 8-25 16-50 24-75 1-4 2-7 4-9l0 0c3-15 14-25 28-27 2-1 4-1 6-2 28-4 56-11 84-17 0-10-1-19-2-28-1-22-3-43-4-64-1-11 4-21 13-25 1-1 2-1 2-2 46-24 92-43 138-56 2 0 4 0 6-1 6 0 12 1 18 4 15 10 29 20 44 30l7 4c18-21 36-43 52-65 1-2 3-3 5-5 6-9 16-14 27-14 3 0 6 0 9 1 0 0 0 0 0 0 3 0 6 0 10 0 26 5 52 9 77 13 44 6 88 13 132 22 14 3 24 13 26 28 2 3 3 6 4 9l2 12c4 20 9 41 12 62 30-4 58-5 85-3 4 1 8 2 12 4 3 1 6 4 9 7 32 37 70 89 91 150 2 6 2 12 0 18-2 5-4 9-7 13-18 18-32 36-44 55 20 13 38 28 56 42l10 8c3 2 5 5 7 7 12 8 17 22 13 37-12 42-26 85-40 127z m-715-348c-3 12-12 20-25 23-29 7-58 14-87 19-7 21-14 42-20 62-12 35-23 72-34 108l5 3c18 15 37 30 56 43 13 9 19 24 15 39 2 7 0 14-4 20-18 24-35 48-53 70 23 42 40 79 55 114 34-3 66-5 96-7 5-2 11-4 17-4 16 0 35 11 37 33 3 23 8 46 12 69l2 6c37 7 75 13 111 18 21 4 43 7 64 10 18-23 37-46 56-69 7-8 16-13 25-13 9 0 18 5 25 11 0 0 1 1 1 2 14 13 28 27 41 39 38-13 75-31 111-53 1-32 2-65 3-98 0-9 4-16 11-21 4-6 11-10 19-12 29-7 58-14 88-19 6-21 13-41 19-62 12-35 23-71 34-108l-5-3c-18-15-37-30-56-42-10-7-16-17-16-29-2-6-1-12 2-18 14-30 33-58 58-86-14-35-35-70-69-111-26-1-53 1-81 5-6 4-13 6-20 6-16 0-34-10-37-32-3-24-8-47-12-70l-2-6c-37-7-74-12-111-18-21-3-43-7-64-10-18 23-37 46-56 70-3 3-6 5-9 7-9 8-21 8-31 2-14-9-28-18-41-27-11-8-22-15-33-22-35 11-70 24-103 41 1 15 2 29 3 44 2 21 3 42 5 62 0 5 0 9-2 14z m-127 531l0 0 0 0 0 0z" horiz-adv-x="1000" />
<glyph glyph-name="zoom-2" unicode="&#xe82e;" d="m373 734c-125 0-226-101-226-225s101-226 226-226 225 101 225 226-101 225-225 225z m0-386c-89 0-161 72-161 161s72 160 161 160 160-72 160-160-72-161-160-161z m251-77c59 62 95 146 95 238 0 57-24 121-34 146-50 121-166 194-309 194-52 0-106-10-157-29-136-51-194-202-191-329 5-178 163-329 345-329 43 0 85 9 123 23 33-71 69-141 106-211 18-34 31-75 54-106 36-51 152 23 185 49 0 1 0 1 0 1 15 5 25 20 14 36-75 107-159 208-231 317z m-531 222c-3 104 42 227 149 266 43 17 89 25 134 25 118 0 208-56 249-154 18-44 29-89 29-121 0-155-126-282-281-282-148 0-276 122-280 266z m449-286c16 9 30 18 44 29 30-45 62-89 94-132-22-14-44-29-64-45-25 49-50 98-74 148z m153-303c-18 36-37 72-55 108 23 18 47 35 72 50 28-38 57-76 84-114-30-23-64-38-101-44z" horiz-adv-x="1000" />
<glyph glyph-name="quote-2" unicode="&#xe82f;" d="m315 762c-138 63-346-56-311-220 19-92 104-159 194-175 78-15 150 19 202 73-11-77-43-154-74-218-53-106-129-219-229-287-38-25-2-86 36-60 220 147 546 721 182 887z m72-223c-44-77-118-122-206-96-76 22-132 105-97 180 66 141 256 91 303-35 1-16 2-31 2-47-1-1-1-1-2-2z m448 223c-137 63-345-56-310-220 19-92 103-159 194-175 78-15 149 19 202 73-11-77-43-154-75-218-52-106-128-219-228-287-38-25-2-86 35-60 221 147 547 721 182 887z m73-223c-44-77-118-122-207-96-75 22-131 105-97 180 64 135 240 95 297-19 6-21 8-42 8-64-1-1-1-1-1-1z" horiz-adv-x="1000" />
<glyph glyph-name="attention-2" unicode="&#xe830;" d="m481 162c-13-4-23-14-31-29-7-15-10-29-7-41 1-9 5-18 9-24 12-18 31-28 52-28 12 0 24 3 35 9 17 9 30 24 33 42 3 15-1 30-11 42-19 23-55 36-80 29z m46-62c0-2-3-7-11-11-9-6-20-3-26 5-3 5-3 14 1 19 1 2 2 3 7 3 2 0 5 0 9-1 6-2 11-5 16-8 2-2 4-4 4-7z m-84 450c-4 0-8-1-12-3-12-3-20-13-20-25-1-63 10-126 20-186 7-44 15-89 18-134 0-8 5-16 12-20 5-5 11-7 17-7h46c12 0 21 7 24 18 2 3 3 7 4 11 4 40 9 81 14 122 7 61 15 124 20 187 1 7-1 14-5 19-5 5-12 8-19 8-2 0-3 0-4 0-38 5-76 8-114 10l-1 0z m88-60c-5-54-12-109-18-163-4-33-8-66-11-99h-2c-4 37-11 75-17 111-8 52-17 104-19 157 23-2 45-3 67-6z m5 311c-2 6-5 10-9 14-6 8-14 11-23 10-8 1-16-2-23-10-4-4-7-8-8-14-4-13-17-28-24-41-8-14-17-28-25-41-16-28-33-56-50-83-34-56-69-110-103-165-67-111-134-222-193-337-17-32-33-65-48-98-11-26-60-96-1-103 313-32 627 7 940 9 20 0 30 16 30 31 2 6 1 13-2 20-123 287-307 539-461 808z m-455-808c116 259 280 491 423 735 141-240 302-469 418-722-281-5-561-35-841-13z" horiz-adv-x="1000" />
<glyph glyph-name="cancel-2" unicode="&#xe831;" d="m955 795c-8 16-24 29-48 30-274 8-548 9-822 9-5 1-10 2-16 2-31 0-56-25-56-56v-17c0-8 2-16 5-23-1-6-2-12-2-19-1-260-19-521-14-782 0-5 0-10 2-14 1-27 19-51 54-50 295 11 590 8 885 8 20 0 35 9 44 21 7 9 12 21 12 35 5 276-19 550-33 824-1 13-5 23-11 32z m-842-806c-2 244 14 488 15 732 243 0 486 0 728-7 14-239 33-479 32-719-258 1-517 2-775-6z m650 288c-34 34-72 65-111 95 27 31 53 61 79 92 5 5 7 10 9 15 8 15 6 34-6 46l-5 6c-5 4-10 7-16 9-28 24-54 50-80 76-15 14-32 13-45 5-4-1-8-4-12-8l-91-91c-30 29-61 57-90 86-14 14-31 13-44 6-4-2-8-5-12-9l-91-90c-8-8-11-17-11-26 0 0 0-1 0-1 0-1 0-1 0-2 0-8 3-17 11-25 31-31 63-62 95-92l-100-100c-16-16-13-36-2-49 1-6 4-12 10-18l96-96c12-12 26-13 39-8 7 0 15 3 22 11l100 99c36-32 70-65 106-97 16-14 35-11 49-1 3 1 7 3 10 7l93 93c12 12 13 26 9 38 0 10-3 20-12 29z m-124-87c-33 31-66 62-100 92-2 2-4 3-6 5-14 13-35 18-53 0l-104-104-56 56 104 105c15 15 14 34 4 47-2 4-5 8-9 11-31 28-61 57-91 86l41 40c27-26 55-51 82-78 3-2 5-4 8-6 13-14 36-19 53-2l94 94c16-16 32-31 49-45-26-31-52-61-78-91-3-3-5-6-6-9-15-13-20-35 0-50 41-32 82-64 120-100l-52-51z" horiz-adv-x="1000" />
<glyph glyph-name="zoom-1" unicode="&#xe832;" d="m594 850c-225 0-406-182-406-406 0-97 33-185 90-255l-269-269c-17-17-17-44 0-61s44-17 61 0l269 269c70-57 158-90 255-90 224 0 406 181 406 406 0 224-182 406-406 406z m0-750c-190 0-344 154-344 344 0 189 154 344 344 344 189 0 344-155 344-344 0-190-155-344-344-344z" horiz-adv-x="1000" />
<glyph glyph-name="comment-2" unicode="&#xe833;" d="m813 38l-125-188-125 188h-375c-104 0-188 84-188 187v438c0 103 84 187 188 187h625c103 0 187-84 187-187v-438c0-103-84-187-187-187z m62 625c0 34-28 62-62 62h-625c-35 0-63-28-63-62v-438c0-35 28-62 63-62h416l84-125 83 125h42c34 0 62 27 62 62v438z" horiz-adv-x="1000" />
<glyph glyph-name="list-2" unicode="&#xe834;" d="m928 531c-4 5-10 8-18 8-55 0-752-1-808-4-10 0-17-6-20-13-3-4-4-8-4-14 3-55 9-30 3-85-1-12 6-20 16-22 3-2 7-3 12-2 55 6 750 10 805 13 15 1 23 12 24 24 0 2 1 5 1 7 0 48-7 15 2 61 2 13-4 22-13 27z m-795-80c1 23-5 36-5 36 40 2 721 2 761 2 0 0-6-16 1-29-39-3-718-5-757-9z m804-99c-3 7-10 13-20 13-56 3-753 4-808 4-8 0-14-3-18-8-9-5-15-14-13-27 9-46 2-13 3-61 0-2 0-5 1-7 0-12 8-23 23-24 55-3 750-7 805-13 5-1 9 0 13 2 9 2 16 10 15 22-6 55 0 30 3 85 1 6-1 10-4 14z m-51-71c-39 4-718 6-757 9 7 13 1 29 1 29 41 0 721 0 761-2 0 0-6-13-5-36z m42-90c-4 5-10 8-18 8-55 0-752-1-808-4-10 0-17-6-20-13-3-4-4-8-4-14 3-55 9-30 3-85-1-12 6-20 16-22 3-2 7-3 12-2 55 6 750 10 805 13 15 1 23 12 24 24 0 2 1 5 1 7 0 48-7 15 2 61 2 13-4 22-13 27z m-795-80c1 23-5 36-5 36 40 2 721 2 761 2 0 0-6-16 1-29-39-3-718-5-757-9z" horiz-adv-x="1000" />
<glyph glyph-name="angle-up-1" unicode="&#xe835;" d="m600 189q0-7-6-13l-28-27q-5-6-12-6t-13 6l-220 219-219-219q-5-6-13-6t-13 6l-27 27q-6 6-6 13t6 13l260 260q5 6 12 6t13-6l260-260q6-5 6-13z" horiz-adv-x="642.9" />
<glyph glyph-name="angle-right-1" unicode="&#xe836;" d="m332 314q0-7-6-13l-260-260q-5-5-12-5t-13 5l-28 28q-6 6-6 13t6 13l219 219-219 220q-6 5-6 12t6 13l28 28q5 6 13 6t12-6l260-260q6-5 6-13z" horiz-adv-x="357.1" />
<glyph glyph-name="angle-left-1" unicode="&#xe837;" d="m350 546q0-7-6-12l-219-220 219-219q6-6 6-13t-6-13l-28-28q-5-5-12-5t-13 5l-260 260q-6 6-6 13t6 13l260 260q5 6 13 6t12-6l28-28q6-5 6-13z" horiz-adv-x="357.1" />
<glyph glyph-name="music" unicode="&#xe838;" d="m10-45q-22 57 5 118 37 76 131 107 39 14 78 14 69 0 119-37l0 537q0 23 15 40t36 22l531 94 12 0q24 0 41-16 22-17 22-47l0-656q0-35-16-66-37-76-131-108-39-13-78-13-60 0-107 28t-65 77q-21 57 6 117 37 77 131 108 39 14 78 14 68 0 119-38l0 379-519-91-12 0 0-500q0-36-16-67-37-76-131-107-39-14-78-14-60 0-107 28t-64 77z m57 22q15-41 66-58t107 3 85 62 13 83-66 57-106-2-85-62-14-83z m337 623l531 94 0 93-531-93 0-94z m256-529q15-41 66-58t107 3 85 62 13 83-66 57-107-3-84-61-14-83z" horiz-adv-x="1000" />
<glyph glyph-name="search" unicode="&#xe839;" d="m0-41q0 47 33 80l260 260q-43 82-43 176 0 154 109 265t266 110 266-110 109-266-109-265-266-109q-94 0-176 43l-260-260q-33-33-80-33-45 0-77 32t-32 77z m55 1q0-22 16-39t39-16 40 17l252 252q-45 33-78 78l-252-252q-17-17-17-40z m258 515q0-129 91-221t221-91 221 91 91 221-91 221-221 91-221-91-91-221z m93 0q0 90 65 154t154 65q16 0 16-16t-16-16q-78 0-133-54t-54-133q0-16-16-16t-16 16z" horiz-adv-x="1000" />
<glyph glyph-name="mail" unicode="&#xe83a;" d="m0 163l0 406q0 51 36 88t89 37l750 0q53 0 89-37t36-88l0-406q0-53-36-89t-89-36l-750 0q-53 0-89 36t-36 89z m63 0q0-26 18-44t44-19l750 0q25 0 44 19t18 44l-244 183-136-101q-26-20-57-20t-57 20l-136 101z m0 39l218 164-218 164 0-328z m0 367l244-184 27-19 129-98q16-12 37-12t37 12l400 301q0 25-18 44t-44 18l-750 0q-25 0-44-18t-18-44z m656-203l218-164 0 328z" horiz-adv-x="1000" />
<glyph glyph-name="heart" unicode="&#xe83b;" d="m0 476q0 122 88 210 84 84 204 86t208-78q88 80 208 78t204-86q88-88 88-210t-88-210q-4-4-346-342-27-27-66-27t-66 27q-2 0-346 342-88 88-88 210z m63 0q0-97 70-165l346-342q21-23 43 0l345 342q70 68 70 165t-70 165q-66 66-160 68t-164-60l-43-39-43 39q-70 62-164 60t-160-68q-70-68-70-165z m93 7q0 55 39 94t94 39q16 0 16-16t-16-16q-41 0-71-29t-30-72q0-16-16-16t-16 16z" horiz-adv-x="1000" />
<glyph glyph-name="dot" unicode="&#xe83c;" d="m110 460q46 0 78-32t32-78q0-44-32-77t-78-33-78 33-32 77q0 46 32 78t78 32z" horiz-adv-x="220" />
<glyph glyph-name="user" unicode="&#xe83d;" d="m4-105q-14 43 25 70 119 78 291 116-84 105-119 255-10 55-11 122t23 149 66 138q84 105 223 105t222-105q43-57 67-138t22-149-11-122q-35-150-119-256 172-37 291-115 39-27 26-71t-61-44l-875 0q-21 0-38 13t-22 32z m60 17l875 0q-109 73-267 108l-79 16q-45-30-91-30t-92 30l-78-16q-160-35-268-108z m193 602q-13-103 16-208t96-186l10-14q56-65 123-65t123 65l9 14q67 82 96 186t16 208q-14 113-76 193t-168 80-168-80-77-193z" horiz-adv-x="1003" />
<glyph glyph-name="video" unicode="&#xe83e;" d="m0 100l0 500q0 39 27 66t67 28l594 0q39 0 66-28t27-66l0-39 84 84q20 17 45 17l27 0q26 0 44-18t19-44l0-500q0-27-19-45t-44-17l-27 0q-25 0-45 17l-84 84 0-39q0-39-27-66t-66-28l-594 0q-39 0-67 28t-27 66z m63 0q0-14 8-22t23-9l594 0q13 0 22 9t9 22l0 500q0 14-9 22t-22 9l-594 0q-14 0-23-9t-8-22l0-500z m687 156l31-31 125-125 31 0 0 500-31 0-156-156 0-188z" horiz-adv-x="1000" />
<glyph glyph-name="camera" unicode="&#xe83f;" d="m0 6l0 469q0 35 23 61t55 31l135 23 43 108q12 27 35 43t53 15l312 0q30 0 53-15t35-43l43-108 135-23q33-6 56-31t22-61l0-469q0-39-27-66t-67-28l-812 0q-39 0-67 28t-27 66z m63 0q0-13 8-22t23-9l812 0q14 0 23 9t8 22l0 469q0 27-25 31l-170 28-56 140q-8 20-30 20l-312 0q-22 0-30-20l-56-140-170-28q-25-4-25-31l0-469z m187 282q0 103 73 176t177 74 177-74 73-176-73-177-177-73-177 73-73 177z m63-15q5-77 65-128t137-45 128 65 45 137-66 128-137 45-128-65-44-137z m62 15q0 50 36 87t89 38q16 0 16-16t-16-16q-39 0-66-27t-28-66q0-16-15-16t-16 16z" horiz-adv-x="1000" />
<glyph glyph-name="photo" unicode="&#xe840;" d="m0-25l0 750q0 53 36 89t89 36l687 0q53 0 89-36t36-89l0-750q0-53-36-89t-89-36l-687 0q-53 0-89 36t-36 89z m63 0q0-25 18-44t44-19l687 0q26 0 44 19t19 44l0 750q0 25-19 44t-44 18l-687 0q-25 0-44-18t-18-44l0-750z m62 156l0 563q0 13 9 22t22 9l625 0q14 0 23-9t9-22l0-563q0-13-9-22t-23-9l-625 0q-13 0-22 9t-9 22z m31 0l483 0-88 100-18 21-252 286-125-145 0-262z m0 311l102 117q10 10 23 10t24-10l246-281 82 94q10 9 23 9t24-9l101-112 0 434-625 0 0-252z m344 96q0 39 27 66t67 27 66-27 28-66-28-67-66-27-67 27-27 67z m31 0q0-26 19-44t44-19 44 19 18 44-18 43-44 19-44-19-19-43z m41-284l108-123 101 0 0 82-125 137z" horiz-adv-x="937" />
<glyph glyph-name="attach" unicode="&#xe841;" d="m0 99q0 91 64 155l456 451q82 82 199 82t199-82 82-199-82-199l-344-342q-21-23-44-1t1 44l338 340q65 62 65 153t-65 156-155 64-153-64l-454-448q-44-45-44-109t45-110 111-46 109 45l457 451q27 27 27 66t-27 67-66 27-67-27l-341-344q-24-22-45 1t0 44l341 343q47 45 112 45t110-45 46-111-45-111l-457-449q-64-65-155-65t-154 64-64 154z" horiz-adv-x="1000" />
<glyph glyph-name="lock" unicode="&#xe842;" d="m0 131l0 219q0 39 27 66t67 28l0 125q0 117 82 199t199 82 199-82 82-199l0-125q39 0 67-28t27-66l0-219q0-117-82-199t-199-82l-188 0q-117 0-199 82t-82 199z m63 0q0-90 64-154t154-65l188 0q90 0 154 65t65 154l0 219q0 14-9 22t-23 9l-562 0q-14 0-23-9t-8-22l0-219z m93 313l63 0 0 125q0 64 46 110t110 46 110-46 46-110l0-125 63 0 0 125q0 90-65 154t-154 64-154-64-65-154l0-125z m94 0l250 0 0 125q0 52-36 89t-89 36-89-36-36-89l0-125z m63-250q0 25 18 44t44 18 44-18 19-44q0-28-22-84-14-41-41-41t-41 41q-21 56-21 84z" horiz-adv-x="750" />
<glyph glyph-name="eye" unicode="&#xe843;" d="m0 341l0 18q0 1 2 3l0 4q70 130 206 213t290 83 291-83 205-215l1-1 1-1 0-4q2-6 2-8t-2-8l0-4-1-1-1-1q-68-132-205-215t-291-83-290 83-206 215l0 2q-2 2-2 3z m66 9q65-113 183-182t250-68 250 68 183 182q-65 113-183 182t-250 68-250-68-183-182z m213 0q0 90 65 154t154 65 154-65 65-154-65-154-154-65-154 65-65 154z m32 0q0-78 54-133t133-54 133 54 55 133-55 133-133 55-133-55-54-133z m62 0q0 53 37 89t88 36q16 0 16-16t-16-15q-37 0-65-28t-29-66q0-16-15-16t-16 16z" horiz-adv-x="998" />
<glyph glyph-name="tag" unicode="&#xe844;" d="m0 100l0 500q0 51 36 88t89 37l594 0q68 0 105-59l156-250q43-66 0-132l-156-250q-37-59-105-59l-594 0q-53 0-89 36t-36 89z m63 0q0-25 18-44t44-18l594 0q35 0 52 29l157 250q21 33 0 66l-157 250q-17 29-52 29l-594 0q-25 0-44-18t-18-44l0-500z m562 250q0 39 27 66t67 28 66-28 27-66-27-66-66-28-67 28-27 66z m31 0q0-25 19-44t44-18 44 18 18 44-18 44-44 19-44-19-19-44z" horiz-adv-x="1002" />
<glyph glyph-name="thumbs-up" unicode="&#xe845;" d="m0-56l0 500q0 39 27 66t67 28l94 0q32 0 60-24 12 6 33 16 123 64 125 226 0 39 28 67t66 27q57 0 105-64t49-147q0-66-8-103 237-6 266-14 43-12 66-43t22-63l0-23q-2-39-27-68 17-34 11-75-7-54-41-86 16-37 0-84-17-58-52-82 7-27 0-54-6-18-14-34-33-60-111-60l-172 0q-92 0-186 21-92 22-127 30l-2 0q0 2-3 2l-4 0 0 2q-28-55-84-55l-94 0q-39 0-67 27t-27 67z m63 0q0-14 8-23t23-9l94 0q13 0 22 9t9 23l0 500q0 13-9 22t-22 9l-94 0q-14 0-23-9t-8-22l0-500z m31 47q0 19 13 33t34 14 33-14 14-33-14-34-33-13-34 13-13 34z m31 0q0-16 16-16t15 16-15 15-16-15z m125 3q0-23 27-27 22-6 145-35 88-20 172-20l172 0q41 0 56 28 6 15 8 23 6 12-2 28t-29 15l-49 0q-16 0-16 16t16 16l51 0q31 0 49 10t22 20 11 30q21 65-39 65l-63 0q-15 0-15 15t15 16l74 0q57 0 69 66 2 22-9 40t-42 19l-61 0q-15 0-15 15t15 16l63 0q61 0 62 45l0 21q0 38-37 47-45 12-337 12 19 59 24 84t5 80q0 57-32 103t-60 45q-31 0-31-31-2-92-46-173t-142-122q-2 0-4-1l-2-1q-25-8-25-33l0-432z" horiz-adv-x="1000" />
<glyph glyph-name="pencil" unicode="&#xe846;" d="m0-41q0 4 1 8t1 8 1 8 1 6l0 2 74 267q10 31 31 53l325 324 0 2 2 2 150 152q60 59 146 59 106 0 186-80 74-74 81-171t-58-161l-476-481q-24-23-55-31l-263-70-3-1q-3-1-7-2t-9-1-10-1-9-1q-45 0-77 32t-32 77z m63 0q0-19 13-33t33-14q6 0 22 4l115 32q4 58-43 105-45 45-105 43l-32-119q-3-14-3-18z m44 168q67-2 118-52t52-120l116 30 11 6q41 47 34 115t-61 121q-51 49-115 59t-112-24q-7-10-11-21z m131 225q45-2 90-20l295 295q-88 22-144-33z m119-35q38-20 65-45 21-22 41-55l297 299q-16 31-39 55-30 29-67 45z m122-129q17-41 21-82l0-24 242 245 0 2q61 60 31 156z m101 508q106 0 186-80 70-73 78-166l0-22 52 55q45 45 41 111-5 74-62 131-63 62-143 62-60 0-101-41z" horiz-adv-x="1000" />
<glyph glyph-name="comment-1" unicode="&#xe847;" d="m0 413q0 156 147 265t353 109 354-109 146-266-146-265-354-110q-47 0-96 8-29-35-89-78t-122-55l-9 0q-12 0-20 8t-8 20q0 6 2 12 0 1 13 21t18 29 13 30 13 36 4 32l0 2q-102 53-160 134t-59 176z m63 0q0-75 48-143t137-111q33-18 33-57l0-6q0-41-21-92 60 37 95 80 18 24 49 24 4 0 8-2 45-6 88-6 182 0 310 92t127 221-127 220-310 92-310-92-127-220z m93 0q0 89 102 154t242 64q16 0 16-15t-16-16q-125 0-219-57t-93-131q0-15-16-15t-16 15z" horiz-adv-x="1000" />
<glyph glyph-name="location" unicode="&#xe848;" d="m0 475q0 156 109 266t266 109 266-109 109-266q0-78-28-160t-85-166-101-141-110-133q-20-25-49-25l-4 0q-29 0-49 25-66 77-110 133t-101 141-85 166-28 160z m63 0q0-72 28-150t85-161 95-128 100-120l2 0q2-2 2-4l4 4q62 73 100 120t94 128 86 161 29 150q0 129-92 221t-221 91-221-91-91-221z m125 8q0 78 54 133t133 54 133-54 55-133-55-133-133-55-133 55-54 133z m31 0q0-65 46-111t110-45 110 45 46 111-46 110-110 46-110-46-46-110z" horiz-adv-x="750" />
<glyph glyph-name="cup" unicode="&#xe849;" d="m0 538l0 93q0 26 17 43t42 20l39 113q13 43 58 43l563 0q45 0 58-43l39-113q24-2 41-20t18-43l0-93q0-26-19-44t-44-19l-33 0 1-3q1-3 1-5l-62-562q-4-24-22-39t-41-16l-437 0q-24 0-41 16t-22 39l-62 562q0 2 1 5l1 3-33 0q-26 0-44 19t-19 44z m63 0l749 0 0 93-749 0 0-93z m62 156l625 0-31 93-563 0z m31-219l10-94 543 0 10 94-563 0z m14-125l35-312 465 0 35 312-535 0z m39-344l10-93 437 0 10 93-457 0z" horiz-adv-x="875" />
<glyph glyph-name="trash" unicode="&#xe84a;" d="m0 569l0 68q2 37 29 63t65 25l94 0 0 31q0 39 27 67t66 27l313 0q39 0 66-27t28-67l0-31 93 0q37 0 65-25t29-63l0-68q0-26-19-44t-44-19l0-531q0-53-36-89t-88-36l-500 0q-53 0-89 36t-36 89l0 531q-26 0-44 19t-19 44z m63 0l749 0 0 62q0 14-8 23t-23 8l-687 0q-14 0-23-8t-8-23l0-62z m62-594q0-25 19-44t44-19l500 0q25 0 43 19t19 44l0 531-625 0 0-531z m63 31l0 407q0 13 8 22t23 9l62 0q14 0 23-9t9-22l0-407q0-13-9-22t-23-9l-62 0q-14 0-23 9t-8 22z m31 0l62 0 0 407-62 0 0-407z m31 719l375 0 0 31q0 14-9 23t-22 8l-313 0q-13 0-22-8t-9-23l0-31z m125-719l0 407q0 13 9 22t22 9l63 0q13 0 22-9t9-22l0-407q0-13-9-22t-22-9l-63 0q-13 0-22 9t-9 22z m31 0l63 0 0 407-63 0 0-407z m157 0l0 407q0 13 8 22t23 9l62 0q14 0 23-9t9-22l0-407q0-13-9-22t-23-9l-62 0q-14 0-23 9t-8 22z m31 0l62 0 0 407-62 0 0-407z" horiz-adv-x="875" />
<glyph glyph-name="doc" unicode="&#xe84b;" d="m0-25l0 625q0 39 27 66t67 28l31 0 0 62q0 39 27 67t67 27l687 0q39 0 67-27t27-67l0-781q0-53-36-89t-89-36l-750 0q-53 0-89 36t-36 89z m63 0q0-25 18-44t44-19l750 0q25 0 44 19t18 44l0 781q0 14-8 23t-23 8l-687 0q-14 0-23-8t-8-23l0-750q0-13-9-22t-23-9-22 9-9 22l0 625-31 0q-14 0-23-9t-8-22l0-625z m187 16q0 15 16 15l250 0q15 0 15-15t-15-16l-250 0q-16 0-16 16z m0 93q0 16 16 16l250 0q15 0 15-16t-15-15l-250 0q-16 0-16 15z m0 94q0 16 16 16l250 0q15 0 15-16 0-6-5-11t-10-4l-250 0q-16 0-16 15z m0 94q0 16 16 16l593 0q16 0 16-16t-16-16l-593 0q-16 0-16 16z m0 94q0 15 16 15l593 0q16 0 16-15t-16-16l-593 0q-16 0-16 16z m0 109l0 219q0 13 9 22t22 9l219 0q14 0 22-9t9-22l0-219q0-14-9-22t-22-9l-219 0q-13 0-22 9t-9 22z m63 31l156 0 0 156-156 0 0-156z m281-515q0 15 15 15l250 0q16 0 16-15t-16-16l-250 0q-15 0-15 16z m0 93q0 16 15 16l250 0q16 0 16-16t-16-15l-250 0q-15 0-15 15z m0 94q0 16 15 16l250 0q16 0 16-16 0-6-5-11t-11-5l-250 0q-15 0-15 16z m0 281q0 16 15 16l250 0q16 0 16-16t-16-15l-250 0q-15 0-15 15z m0 94q0 16 15 16l250 0q16 0 16-16t-16-16l-250 0q-15 0-15 16z m0 94q0 15 15 15l250 0q16 0 16-15t-16-16l-250 0q-15 0-15 16z" horiz-adv-x="1000" />
<glyph glyph-name="key" unicode="&#xe84c;" d="m0-88l0 94q0 20 18 39l379 379q-22 57-22 114 0 128 92 220t221 92 220-92 92-220-92-221-220-92q-57 0-114 22l-74-73 0-74q0-25-19-44t-43-18l-63 0 0-63q0-25-19-44t-43-18l-73 0-45-45q-17-18-39-18l-93 0q-26 0-44 19t-19 44z m63 0l87 0 45 45q18 18 45 18l73 0 0 63q0 25 18 43t44 19l63 0 0 74q0 26 17 43l61 61 35 35 10 10q60-35 127-35 103 0 176 73t73 177-73 176-176 73-177-73-73-176q0-67 35-127l-45-45-365-364 0-90z m562 713q0 4 2 10 23 65 88 88 15 6 27-4 74-53 127-127 6-8 6-17 0-4-2-10-23-65-88-88-15-6-27 4-74 53-127 127-6 8-6 17z m31 0q51-70 119-119 51 18 69 69-49 68-119 119-51-18-69-69z" horiz-adv-x="1000" />
<glyph glyph-name="database" unicode="&#xe84d;" d="m0 53l0 594q0 98 131 150t307 53 306-53 131-150l0-594q0-97-131-150t-306-53-307 53-131 150z m63 0q0-59 109-100t266-41 265 41 109 100l0 117q-46-48-150-75t-224-26-225 26-150 75l0-117z m0 188q0-59 109-100t266-41 265 41 109 100l0 117q-46-49-150-75t-224-27-225 27-150 75l0-117z m0 187q0-58 109-99t266-41 265 41 109 99l0 108q-58-45-160-69t-214-23-215 23-160 69l0-108z m0 219q0-59 109-100t266-41 265 41 109 100-109 99-265 41-266-41-109-99z m625-609q0 13 8 22t23 9 22-9 9-22-9-23-22-9-23 9-8 23z m0 187q0 14 8 22t23 9 22-9 9-22-9-22-22-9-23 9-8 22z m0 188q0 13 8 22t23 9 22-9 9-22-9-23-22-9-23 9-8 23z" horiz-adv-x="875" />
<glyph glyph-name="megaphone" unicode="&#xe84e;" d="m0 413q0 66 36 111t89 45l289 0q63 0 119 45t96 125l2 0q58 111 150 111 102 0 160-131t59-307-59-306-160-131q-92 0-150 111l-2 0q-78 155-199 168-6-2-8-2l0-2q-6-2-10-7-2-2-2-4-4-6-4-12l0-221q0-8 16-26t16-36l0-32q0-25-19-43t-44-19l-125 0q-25 0-44 19t-18 43l0 282q0 25-19 44t-44 18q-53 0-89 45t-36 111z m63 0q0-40 18-67t44-27l219 0q-31 37-31 94t31 93l-219 0q-25 0-44-27t-18-66z m169-157q18-29 18-62l0-282 125 0 0 28-2 2-2 2q-27 33-27 62l0 219q0 16 6 31l-118 0z m112 157q0-40 18-67t44-27l8 0q86 0 162-63-13 74-13 157 0 80 13 156-76-63-162-63l-8 0q-25 0-44-27t-18-66z m281 0q0-47 6-94l88 0q25 0 44 27t18 67-18 66-44 27l-88 0q-6-47-6-93z m14-157q19-97 57-158t85-60q65 0 111 109t45 266-45 265-111 109q-47 0-85-60t-57-158l80 0q52 0 89-45t36-112-36-111-89-45l-80 0z" horiz-adv-x="1000" />
<glyph glyph-name="graduation" unicode="&#xe84f;" d="m0 600q0 33 21 59t51 33l407 94q11 1 21 1t22-1l406-94q31-8 51-33t21-59-21-59-51-33l-84-19 0-264q0-68-84-112t-260-44-260 44-84 112l0 264-84 19q-31 8-51 33t-21 59z m63 0q0-25 23-31l406-94 16 0 406 94q23 6 23 31t-23 31l-406 94-16 0-406-94q-23-6-23-31z m156-375q0-20 29-40t97-37 155-17 155 17 97 37 29 40l0 250-259-61q-12-1-22-1t-21 1l-260 61 0-250z m656-250q0 31 20 78t42 47 43-47 20-78q0-25-19-44t-44-19-43 19-19 44z m31 188l0 281q0 13 9 22t22 9 23-9 9-22l0-281q0-14-9-23t-23-9-22 9-9 23z" horiz-adv-x="1000" />
<glyph glyph-name="fire" unicode="&#xe850;" d="m0 135q0 76 18 167t33 156 13 170-33 222l20-14q19-13 51-44t64-69 65-97 48-118q63 94 65 186l31-35q29-36 61-106t31-139l15 20q16 21 33 60t16 75q96-119 135-251t10-249q-14-51-31-84t-56-68-107-50-169-17q-137 0-225 85t-88 200z m63 0q0-88 69-155t181-68q74 0 128 11t84 26 49 42 27 44 14 49q39 159-64 344-61-103-145-172 0 92-10 176t-25 113q-23-58-113-185 0 7-12 50t-44 123-75 137q8-125-33-310-31-143-31-225z m50-23q0 146 41 263l16 47 16-41q19-56 66-164 20 30 49 74l47 75 0-53q0-66 23-135 39 20 68 41t43 36 36 40l27 30 6-32q21-119-20-218-4-10-13-10-4 0-6 2-14 6-8 19 27 73 19 168-58-66-154-113l-15-6-6 16q-24 66-28 111-31-45-58-84l-16-21-12 23q-43 98-64 149-25-84-25-217 0-16-16-16t-16 16z" horiz-adv-x="688" />
<glyph glyph-name="paper-plane" unicode="&#xe851;" d="m0 191q-2 18 14 28l937 625q8 6 18 6t18-6q15-10 13-31l-156-938q-4-13-16-21-7-4-15-4-6 0-12 2l-303 121-64-107q-10-16-28-16t-27 16l-115 201-244 97q-18 8-20 27z m98 11l189-77q2-2 5-3l3-2 527 564z m221-104l87-152 504 787z m183-62q12-2 20-4l265-108 125 748z" horiz-adv-x="1000" />
<glyph glyph-name="cloud" unicode="&#xe852;" d="m0 178q0 55 27 102t75 74q-8 21-8 43 0 58 41 99t99 42q20 0 43-8 34 74 102 119t152 45q110 0 189-73t91-181q82-16 135-80t54-151q0-97-68-166t-166-68l-563 0q-84 0-143 60t-60 143z m63 0q0-58 41-99t99-41l563 0q70 0 121 50t50 121q0 63-39 110t-99 58q-35 8-42 15t-9 42q-8 84-70 141t-147 56q-62 0-117-34t-80-93q-10-19-12-24t-8-13-15-6-22 6q-21 10-43 8-33 0-55-22t-23-56q0-10 4-24 14-33 10-44t-37-30q-70-41-70-121z" horiz-adv-x="1000" />
<glyph glyph-name="globe" unicode="&#xe853;" d="m0 366q0 201 142 342t342 142 343-142 142-342-142-343-343-142-342 142-142 343z m63-16q7-166 125-283 52 37 109 60-43 106-47 223l-187 0z m0 31l187 0q4 104 37 196-62 25-117 68-102-113-107-264z m128 287q51-39 108-62 43 101 117 176-131-22-225-114z m20-623q88-76 205-95-64 64-105 148-53-19-100-53z m70 305q4-111 45-213 69 22 143 26l0 187-188 0z m0 31l188 0 0 157q-78 3-153 29-31-88-35-186z m47 215q69-23 141-27l0 218-2 0q-90-76-139-191z m12-486q49-100 127-166l2 0 0 187q-69-4-129-21z m160-166l2 0q78 66 127 166-61 17-129 21l0-187z m0 219q74-4 143-26 41 102 45 213l-188 0 0-187z m0 218l188 0q-4 98-36 186-74-26-152-29l0-157z m0 188q72 4 141 27-49 115-139 191l-2 0 0-218z m53-619q117 19 205 95-47 34-100 53-41-84-105-148z m0 832q74-75 117-176 57 23 107 62-93 92-224 114z m119-655q57-23 109-60 117 117 125 283l-187 0q-4-117-47-223z m10 450q33-92 37-196l187 0q-6 151-107 264-55-43-117-68z" horiz-adv-x="969" />
<glyph glyph-name="inbox" unicode="&#xe854;" d="m0 38l0 218q0 8 2 18l125 469q6 19 22 32t39 12l624 0q22 0 39-12t22-32l125-469q2-10 2-18l0-218q0-53-36-89t-89-37l-750 0q-53 0-89 37t-36 89z m63 0q0-26 18-45t44-18l750 0q25 0 44 18t18 45l0 218-125 469-624 0-125-469 0-218z m58 226l108 375q5 23 29 23l484 0q24 0 29-23l108-375q4-16-5-27t-24-12l-143 0-45-90q-17-35-57-35l-210 0q-40 0-57 35l-45 90-143 0q-15 0-24 12t-5 27z m45 24l127 0q39 0 57-36l45-89 210 0 45 89q18 36 57 36l127 0-92 343-484 0z" horiz-adv-x="1000" />
<glyph glyph-name="cd" unicode="&#xe855;" d="m5 276q-18 127 29 260 51 126 158 209t234 99 258-29q127-51 210-158t100-234-30-259q-51-126-157-209t-234-100-260 30q-127 51-209 157t-99 234z m89 236q-68-168 4-335t239-233 335 5 233 239-5 334-239 233-334-4-233-239z m57-23q57 144 200 205 15 8 21-7t-8-21q-131-56-183-189-6-14-21-8t-9 20z m59-24q47 121 166 172 14 6 20-9t-8-20q-106-45-151-154-6-14-19-8t-8 19z m57-21q39 94 132 135l2 1q14 6 20-8t-8-21q-84-35-117-119-6-16-21-10t-8 22z m58-24q29 73 101 103t143 1 103-101 1-143-101-103-143-1-103 101-1 143z m58-24q-19-48 2-96t68-66 96 2 66 68-2 96-68 66-96-2-66-68z m57-23q10 24 35 35t47 1 35-35 1-47-35-35-47-1-35 35-1 47z m31-35q5-11 16-16t24 0 16 16 0 24-16 16-24 0-16-16 0-24z m106-210q-6 15 8 21 84 35 117 119 6 16 21 10t8-22q-39-95-132-136l-2 0q-14-6-20 8z m24-57q-6 13 9 21 108 45 151 153 6 15 20 9t9-21q-49-119-168-170-14-6-21 8z m25-58q-6 15 8 21 131 56 183 189 6 14 21 8t9-20q-57-144-200-205l0-2q-15-6-21 9z" horiz-adv-x="998" />
<glyph glyph-name="mobile" unicode="&#xe856;" d="m0-56l0 812q0 39 27 67t67 27l500 0q39 0 66-27t28-67l0-812q0-39-28-67t-66-27l-500 0q-39 0-67 27t-27 67z m63 0q0-14 8-23t23-9l500 0q13 0 22 9t9 23l0 62-562 0 0-62z m0 94l562 0 0 624-562 0 0-624z m0 656l562 0 0 62q0 14-9 23t-22 8l-500 0q-14 0-23-8t-8-23l0-62z m218 47q0 15 16 15l94 0q15 0 15-15t-15-16l-94 0q-16 0-16 16z m32-782q0 16 15 16l31 0q16 0 16-16t-16-15l-31 0q-15 0-15 15z" horiz-adv-x="687" />
<glyph glyph-name="desktop" unicode="&#xe857;" d="m0 100l0 625q0 39 27 66t67 28l812 0q39 0 67-28t27-66l0-625q0-39-27-66t-67-28l-312 0 0-37 195-25q23-6 23-32 0-13-8-22t-23-9l-562 0q-14 0-23 9t-8 22q0 26 23 32l195 25 0 37-312 0q-39 0-67 28t-27 66z m63 0q0-14 8-22t23-9l812 0q14 0 23 9t8 22l0 625q0 14-8 22t-23 9l-812 0q-14 0-23-9t-8-22l0-625z m62 125l0 437q0 14 9 23t22 9l688 0q13 0 22-9t9-23l0-437q0-14-9-22t-22-9l-688 0q-13 0-22 9t-9 22z m31 0l688 0 0 437-688 0 0-437z" horiz-adv-x="1000" />
<glyph glyph-name="tv" unicode="&#xe858;" d="m36 47q-72 303 0 606 10 43 53 47 205 25 410 25t410-25q45-4 55-47 72-303 0-606-12-43-55-47-94-11-197-17 6-4 6-8 0-14-65-22t-154-9-154 9-65 22q0 4 6 8-103 6-197 17-43 4-53 47z m61 16q402-51 806 0 69 287 0 574-404 51-806 0-69-287 0-574z m60 84q-66 207 0 412 6 18 24 21 129 26 256 26t255-26q18-4 24-21 33-102 33-205t-33-207q-6-18-24-22-129-25-255-25t-256 25q-18 4-24 22z m32 10q248-51 498 0 64 197 0 392-250 53-498 0-65-195 0-392z m62 209l8 88q4 13 19 15l143 12q16 0 16-16t-16-15l-117-8q-16-2-18-18l-6-58q0-16-15-16t-14 16z m498-219q0 16 16 16l93 0q16 0 16-16t-16-16l-93 0q-16 0-16 16z m31 94q0 15 16 15l94 0q15 0 15-15t-15-16l-94 0q-16 0-16 16z m0 93q0 16 16 16l94 0q15 0 15-16t-15-15l-94 0q-16 0-16 15z m0 188q0 19 14 33t33 14 33-14 14-33-14-33-33-14-33 14-14 33z m32 0q0-16 15-16t16 16-16 16-15-16z" horiz-adv-x="1000" />
<glyph glyph-name="wallet" unicode="&#xe859;" d="m0 22l0 625q0 70 51 121t121 51l640 0q40 0 67-28t27-66l0-281q94-71 94-188t-94-187l0-47q0-70-51-121t-121-51l-562 0q-70 0-121 51t-51 121z m63 0q0-45 32-77t77-33l562 0q45 0 78 33t32 77l0 47-281 0q-65 0-111 46t-46 110 46 110 111 46l281 0 0 63q0 13-9 22t-23 9l-640 0q-63 0-109 39l0-492z m0 625q0-45 31-76l0 123q0 13 9 22t22 9l656 0q14 0 23-9t9-22l0-156q15 0 31-6l0 193q0 14-9 22t-23 9l-640 0q-45 0-77-32t-32-77z m62-98q23-11 47-11l609 0 0 31-656 0 0-20z m0 51l656 0 0 31-656 0 0-31z m0 62l656 0 0 32-656 0 0-32z m344-437q0-39 27-66t67-28l320 0q54 51 54 125 0 59-35 104l0-2q-4-8-7-14-20-25-51-25l-281 0q-40 0-67-28t-27-66z m31 0q0 25 19 44t44 19 43-19 19-44-19-44-43-18-44 18-19 44z" horiz-adv-x="1000" />
<glyph glyph-name="t-shirt" unicode="&#xe85a;" d="m4 580q-14 41 20 69l156 125q17 13 39 13l562 0q22 0 39-13l157-125q33-28 19-69l-62-187q-10-29-39-39-10-4-20-4-18 0-31 8l0-383q0-25-19-44t-44-19l-562 0q-26 0-44 19t-19 44l0 383q-13-8-31-8-10 0-19 4-30 10-39 39z m59 20l62-187 94 62 0-500 562 0 0 500 94-62 63 187-157 125-131 0q-13-41-54-67t-96-27-96 27-54 67l-131 0z m320 125q14-27 45-45t72-18 72 18 45 45l-234 0z" horiz-adv-x="1000" />
<glyph glyph-name="lightbulb" unicode="&#xe85b;" d="m0 506q0 143 101 243t243 101 243-101 101-243q0-55-30-121t-71-141-56-115q-15-39-31-94t-24-82-27-53-42-39-63-11-64 11-41 39-26 53-25 82-32 94q-13 43-55 116t-72 140-29 121z m63 0q0-64 82-213 37-64 52-99l293 0q16 35 53 99 82 151 82 213 0 117-82 199t-199 82-199-82-82-199z m93 0q0 78 55 133t133 55q15 0 15-16t-15-16q-65 0-111-45t-45-111q0-15-16-15t-16 15z m67-375q11-33 19-60l213 27q2 12 10 33l-242 0z m29-90q10-35 18-60l154 19q6 16 12 38 2 5 4 15t3 12z m29-89q12-26 25-33t38-7q29 0 43 10t27 45z" horiz-adv-x="687" />
<glyph glyph-name="clock" unicode="&#xe85c;" d="m0 350q0 121 86 213l43 236q4 22 21 36t41 15l250 0q22 0 39-15t22-36l45-244q57-64 72-144l2 1q2 1 4 1 25 0 44-19t19-44-19-44-44-18q-2 0-4 0l-2 1q-17-84-76-148l-45-240q-4-22-20-36t-40-15l-250 0q-24 0-40 15t-21 36l-45 240q-82 90-82 209z m63 0q0-103 73-177t177-73 176 73 74 177-74 177-176 73-177-73-73-177z m31 0q0 14 9 22t22 9 23-9 8-22-8-22-23-9-22 9-9 22z m54-132q0 13 9 22t23 8 22-8 9-22-9-22-22-10-23 10-9 22z m0 265q0 13 9 22t23 9 22-9 9-22-9-23-22-8-23 8-9 23z m8-402l32-169 250 0 31 169q-74-43-156-43t-157 43z m4 539q74 42 156 42t157-42l-32 167-250 0z m121-457q0 13 9 22t23 9 22-9 9-22-9-23-22-9-23 9-9 23z m0 187q0 14 10 22l162 134q8 6 14-1t2-14l-76-94-59-70q-8-8-21-8t-23 9-9 22z m0 188q0 13 9 22t23 9 22-9 9-22-9-23-22-9-23 9-9 23z m133-320q0 13 9 22t21 8 23-8 10-23q0-12-10-21t-23-10-21 10-9 22z m55 132q0 14 9 22t22 9 22-9 9-22-9-22-22-9-22 9-9 22z" horiz-adv-x="687" />
<glyph glyph-name="diamond" unicode="&#xe85d;" d="m0 502q0 28 18 45l160 158q17 20 43 20l558 0q26 0 43-20l160-158q18-17 18-43 0-23-16-43l-437-464q-20-22-47-22t-47 22l-437 464q-16 18-16 41z m63 4l134 0 84 84-72 61z m27-31l307-328-196 328-111 0z m146 0l231-383-76 383-155 0z m4 31l143 0-78 65z m2 156l61-50 51 50-112 0z m84-70l80-66 71 58-86 71z m96-117l78-389 78 389-156 0z m8 31l140 0-70 57z m0 156l70-58 68 58-138 0z m95-78l69-58 80 66-65 63z m8-492l231 383-155 0z m71 55l306 328-111 0z m13 359l143 0-65 65z m29 156l51-50 61 50-112 0z m73-72l84-84 133 0-145 145z" horiz-adv-x="1000" />
<glyph glyph-name="shop" unicode="&#xe85e;" d="m0 413l0 31q0 31 20 56l93 125q4 6 12 14l0 148q0 26 19 44t44 19l624 0q26 0 44-19t19-44l0-148q8-8 12-14l93-125q20-25 20-56l0-32q0-39-27-66t-67-27l0-407q0-25-18-43t-44-19l-688 0q-25 0-44 19t-18 43l0 407q-39 0-67 27t-27 66z m63 0q0-14 8-23t23-9l58 0 125 219-89 0q-16 0-26-12l-94-125q-5-9-5-19l0-31z m93-501l203 0 0 313q0 14 9 22t23 9l234 0q14 0 22-9t9-22l0-313 188 0 0 407-688 0 0-407z m32 469l130 0 63 219-68 0z m0 281l624 0 0 125-624 0 0-125z m164-281l132 0 0 219-70 0z m39-468l234 0 0 312-234 0 0-312z m125 468l132 0-62 219-70 0 0-219z m103 219l63-219 130 0-124 219-69 0z m104 0l125-219 58 0q14 0 23 9t8 23l0 31q0 10-5 19l-94 125q-10 12-26 12l-89 0z" horiz-adv-x="1000" />
<glyph glyph-name="sound" unicode="&#xe85f;" d="m0 163q0 39 27 66l98 98 0 429q0 30 16 53t43 33q15 8 35 8 39 0 66-27l688-688q45-45 19-101-10-28-33-43t-53-16l-429 0-98-98q-27-27-66-27t-67 27l-219 219q-27 27-27 67z m63 0q0-14 9-22l219-219q8-10 22-10t21 10l98 98 2 0-264 264 0-2-98-98q-9-8-9-21z m123 150l277-277q12 2 14 2l377 0-666 666 0-377q0-2-2-14z m2 433l708-708 10 0q22 0 30 19t-8 33l-688 688q-8 9-21 9-6 0-12-1-19-8-19-30l0-10z m343 73q0 13 9 22t23 9q181 0 309-128t128-309q0-14-9-23t-22-9-23 9-9 23q0 154-110 264t-264 110q-14 0-23 9t-9 23z m16-110q0 16 16 16 128 0 220-92t92-220q0-16-16-16t-15 16q0 117-82 199t-199 82q-16 0-16 15z" horiz-adv-x="1001" />
<glyph glyph-name="calendar" unicode="&#xe860;" d="m0-66l0 738q0 35 24 60t60 24l135 0 0 63q0 13 9 22t22 9 22-9 9-22l0-63 188 0 0 63q0 13 9 22t22 9 22-9 9-22l0-63 188 0 0 63q0 13 9 22t22 9 22-9 9-22l0-63 135 0q35 0 60-24t24-60l0-738q0-35-24-60t-60-24l-832 0q-35 0-60 24t-24 60z m63 0q0-10 5-16t16-6l832 0q10 0 16 6t5 16l0 738q0 10-5 16t-16 6l-135 0 0-63q0-13-9-22t-22-9-22 9-9 22l0 63-188 0 0-63q0-13-9-22t-22-9-22 9-9 22l0 63-188 0 0-63q0-13-9-22t-22-9-22 9-9 22l0 63-135 0q-10 0-16-6t-5-16l0-738z m156 135l0 94 125 0 0-94-125 0z m0 156l0 94 125 0 0-94-125 0z m0 156l0 94 125 0 0-94-125 0z m219-312l0 94 125 0 0-94-125 0z m0 156l0 94 125 0 0-94-125 0z m0 156l0 94 125 0 0-94-125 0z m218-312l0 94 125 0 0-94-125 0z m0 156l0 94 125 0 0-94-125 0z m0 156l0 94 125 0 0-94-125 0z" horiz-adv-x="1000" />
<glyph glyph-name="food" unicode="&#xe861;" d="m0 116q0 33 23 55t55 23l84 0q22 121 117 201t221 80q102 0 186-55t126-144l143 70q12 6 24 2t17-16 2-23-16-18l-150-76q4-11 6-21l84 0q33 0 56-23t22-55q0-24-16-41l-109-123 0-24q0-33-22-56t-56-22l-594 0q-33 0-55 22t-23 56l0 24-109 123q-16 17-16 41z m63 0l125-141 0-47q0-16 15-16l594 0q15 0 15 16l0 47 125 141q0 15-15 15l-844 0q-15 0-15-15z m130 78l34 0q21 95 97 157t176 62q84 0 153-46t103-120l27 15q-37 82-113 132t-170 50q-111 0-198-72t-109-178z m55 291q-16 39 16 113 25 61 13 90l-2 0 0 6q0 15 16 15 10 0 14-9 17-42-14-114-25-62-12-92l0-3q0-16-15-16-10 0-14 8l0 2-2 0z m10-291l33 0q20 68 77 112t132 44q66 0 120-36t79-95l30 14q-32 66-93 107t-136 41q-86 0-153-52t-89-135z m66 0l33 0q18 43 57 68t86 26 86-26 57-68l5 0 24 11q-22 51-68 83t-104 31q-61 0-108-35t-68-90z m69 0l37 0q29 31 70 31t68-31l39 0q-37 62-107 62t-107-62z m76 429l0 2q-16 39 13 114 28 60 14 89l0 6q0 16 14 16 12 0 15-10 18-41-13-113-26-63-14-92 2-2 2-4 0-15-16-15-9 0-15 7z m160-134l0 2q-16 39 16 111 25 62 11 90l0 6q0 15 16 15 10 0 14-9 17-40-14-114-26-60-14-90l0-2q2-2 2-3 0-16-15-16-10 0-14 10l-2 0z m160-295l18 0q0 2-1 4t-1 4z" horiz-adv-x="1000" />
<glyph glyph-name="money" unicode="&#xe862;" d="m3 243q31 97 107 173 59 61 203 145 129 74 178 123 55 55 74 121 6 16 16 27 14 12 29 16 35 8 61-16l312-312q26-27 16-63-31-99-108-173-58-61-203-145-129-74-177-123-55-53-75-121-6-16-15-27-14-12-30-16-35-8-60 16l-313 312q-25 27-15 63z m60-18l99-99 115-115 99-99q25 79 84 140t128 102l138 80t129 101 83 140l-157 157-155 155q-24-78-83-139t-129-102l-139-80t-128-101-84-140z m274-199l21 29q22 27 47 53 22 23 55 49 11 9 21 0 12-12 0-24l-2 0q-31-25-52-47-24-23-43-48l-20-28q-2-2-2-4-12-12-23 0-8 10-2 20z m27 359q2 18 10 33 8 18 19 32 0 2-5 5-4 2-4 7t4 10 8 5 7-4q4-4 8-6 8 8 20 16t28 12 29 1 24-15q8-8 8-18t-8-15q-5-6-15-4-6 2-18 4-9 4-20 3t-23-11q20-20 51-57 14 8 31 14 16 6 32 8t31-3 31-17q14-12 20-25 4-14 2-30 0-15-10-33-8-19-22-37 8-6 16-13 4-2 5-7t-3-9-9-5-9 3q-9 8-15 16-18-18-35-24-16-6-34-6-15 2-28 8t-20 15-8 17 8 16 13 7 13-3 13-8 13-7 17 0 20 12q-21 21-56 62-32-17-65-19-29-2-50 15-14 12-20 26t-4 29z m42 11q-1-7 1-14t8-10q10-10 22-9t33 10q-30 32-49 51-6-8-10-14t-5-14z m112 143q-9 10 0 22 2 2 4 2 32 25 53 47 23 23 43 49l19 27q2 4 4 4 12 12 22 0 10-10 2-22l-22-29q-21-27-47-53-21-23-54-48-12-10-24 1z m4-195q32-35 53-56 6 5 10 13t6 16 0 14-9 14-15 9-15 1-16-5q-4-2-14-6z" horiz-adv-x="1001" />
<glyph glyph-name="params" unicode="&#xe863;" d="m0 538q0 76 63 124l0 94q0 39 27 67t66 27 67-27 27-67l0-94q63-48 63-124t-63-125l0-469q0-39-27-67t-67-27-66 27-27 67l0 469q-63 48-63 125z m63 0q0-12 3-26l2-6q4-13 12-23 8-12 20-21t25-12q16-6 31-6t32 6q13 4 25 13 12 8 19 20 8 10 12 23l2 6q4 14 4 26t-4 25q-2 4-2 6-4 13-12 23-7 12-19 21t-25 12q-16 6-32 6t-31-6q-14-4-25-13-10-8-20-20-8-10-12-23l-2-6q-3-14-3-26z m62-594q0-14 9-23t22-9 23 9 9 23l0 441q-16-4-32-4t-31 4l0-441z m0 746q16 4 31 4t32-4l0 66q0 14-9 23t-23 8-22-8-9-23l0-66z m219-527q0 76 62 125l0 468q0 39 28 67t66 27 66-27 28-67l0-468q62-49 62-125t-62-125l0-94q0-39-28-67t-66-27-66 27-28 67l0 94q-62 48-62 125z m62 0q0-12 4-26l2-6q4-13 12-23 8-12 19-21t26-12q15-6 31-6t31 6q14 4 26 13 11 8 19 20 8 10 12 23 0 2 2 6 4 14 4 26t-4 25l-2 6q-4 13-12 23-8 12-19 20-12 10-26 13-15 6-31 6t-31-6q-14-3-26-13-9-8-19-20-8-10-12-23l-2-6q-4-14-4-25z m63-219q0-14 9-23t22-9 22 9 9 23l0 66q-15-4-31-4t-31 4l0-66z m0 371q15 4 31 4t31-4l0 441q0 14-9 23t-22 8-22-8-9-23l0-441z m219 223q0 76 62 124l0 94q0 39 27 67t67 27 66-27 27-67l0-94q63-48 63-124t-63-125l0-469q0-39-27-67t-66-27-67 27-27 67l0 469q-62 48-62 125z m62 0q0-12 4-26l2-6q4-13 12-23 7-12 19-21t25-12q16-6 32-6t31 6q14 4 25 13 12 8 20 20 8 10 12 23 0 2 2 6 3 14 3 26t-3 25l-2 6q-4 13-12 23-8 12-20 20-11 9-25 13-16 6-31 6t-32-6q-13-4-25-13-12-8-19-20-8-10-12-23l-2-6q-4-14-4-26z m62-594q0-14 9-23t23-9 22 9 9 23l0 441q-16-4-31-4t-32 4l0-441z m0 746q16 4 32 4t31-4l0 66q0 14-9 23t-22 8-23-8-9-23l0-66z" horiz-adv-x="1000" />
<glyph glyph-name="cog" unicode="&#xe864;" d="m0 307l0 86q0 21 15 39t36 22l96 19q5 20 15 41l-53 80q-13 20-10 42t18 38l59 59q19 19 45 19 19 0 35-11l80-53q21 10 41 16l20 95q3 22 21 36t39 15l86 0q21 0 39-15t22-36l19-95q20-6 41-16l80 53q16 11 35 11 26 0 45-19l59-59q17-15 19-38t-11-42l-53-80q10-22 16-41l95-20q22-3 36-21t15-39l0-86q0-22-15-39t-36-22l-95-19q-6-20-16-41l53-80q13-20 11-42t-19-38l-59-59q-19-19-45-19-19 0-35 11l-80 53q-21-10-41-16l-19-95q-4-22-22-36t-39-15l-86 0q-21 0-39 14t-21 37l-20 95q-20 6-41 16l-80-53q-16-11-35-11-26 0-45 19l-59 59q-15 15-18 38t10 42l53 80q-10 21-15 41l-96 19q-22 4-36 22t-15 39z m63 0l95-19q35-6 47-40 6-17 14-35 15-31-4-60l-55-82 61-61 82 55q15 10 33 10 16 0 27-6 18-8 35-14 34-12 40-47l19-96 86 0 20 96q5 35 39 47 17 6 35 14 11 6 27 6 18 0 33-10l82-55 61 61-55 82q-19 29-4 60 8 18 14 35 12 34 47 40l95 19 0 86-95 20q-35 5-47 39-6 17-14 35-15 31 4 60l55 82-61 61-82-55q-15-10-33-10-16 0-27 6-18 8-35 14-34 12-39 47l-20 95-86 0-19-95q-6-35-40-47-17-6-35-14-11-6-27-6-18 0-33 10l-82 55-61-61 55-82q19-29 4-60-8-18-14-35-12-34-47-39l-95-20 0-86z m218 43q0 90 65 154t154 65 154-65 65-154-65-154-154-65-154 65-65 154z m28 0q0-80 55-136t136-55 136 55 55 136-55 136-136 55-136-55-55-136z m66 0q0 53 36 89t89 36 89-37 36-89-36-88-89-36-89 36-36 89z m31 0q0-39 28-66t66-28 66 28 28 66-28 66-66 28-66-28-28-66z" horiz-adv-x="1000" />
<glyph glyph-name="beaker" unicode="&#xe865;" d="m2 354q10 49 55 68l424 170q-12 20-12 41 0 33 23 57l43 43q24 23 56 23t56-23l240-240q23-24 23-56t-23-56l-43-45q-24-21-55-21-23 0-43 12l-168-418q-17-47-68-57-8-2-18-2l-4 0q-37 0-62 27l-398 393q-36 35-26 84z m62-11q-3-16 8-28l397-393q10-10 21-10l8 0q16 4 24 20l146 371q-58 61-123 85t-146 33-123 23l-194-78q-15-6-18-23z m186-24q0 25 19 44t44 18 44-18 18-44-18-44-44-19-44 19-19 44z m31 0q0-14 9-23t23-8 22 8 9 23-9 22-22 9-23-9-9-22z m43 144q30-6 80-13 59-6 93-13t87-33 98-70l41 102 55-55q11-11 21 0l45 45q12 10 0 22l-242 242q-10 10-22 0l-45-45q-9-12 0-22l55-54z m51-332q0 14 9 23t22 9 23-9 9-23-9-22-23-9-22 9-9 22z m63 141q0 33 22 56t56 22 55-22 23-56-23-56-55-22-56 22-22 56z m31 0q0-20 14-33t33-14 33 14 14 33-14 33-33 14-33-14-14-33z m375 500q0 33 22 56t56 22 56-22 22-56-22-56-56-22-56 22-22 56z m31-172q0 14 9 22t22 9 23-9 9-22-9-22-23-9-22 9-9 22z m0 172q0-20 14-33t33-14 33 14 14 33-14 33-33 14-33-14-14-33z" horiz-adv-x="1000" />
<glyph glyph-name="note" unicode="&#xe866;" d="m0-25l0 750q0 39 27 66t67 28l656 0q25 0 45-18l187-187q18-20 18-45l0-594q0-39-27-66t-67-28l-812 0q-39 0-67 28t-27 66z m63 0q0-14 8-23t23-8l812 0q14 0 23 8t8 23l0 563-124 0q-40 0-67 27t-27 66l0 125-625 0q-14 0-23-9t-8-22l0-750z m62 78q0 16 16 16l718 0q16 0 16-16t-16-15l-718 0q-16 0-16 15z m0 94q0 16 16 16l718 0q16 0 16-16t-16-16l-718 0q-16 0-16 16z m0 94q0 15 16 15l718 0q16 0 16-15t-16-16l-718 0q-16 0-16 16z m0 93q0 16 16 16l718 0q16 0 16-16t-16-15l-718 0q-16 0-16 15z m0 110l0 187q0 14 9 23t22 8l219 0q14 0 22-8t9-23l0-187q0-14-9-23t-22-8l-219 0q-13 0-22 8t-9 23z m63 31l156 0 0 125-156 0 0-125z m281-47q0 16 15 16l375 0q16 0 16-16t-16-15l-375 0q-15 0-15 15z m0 94q0 16 15 16l157 0q15 0 15-16t-15-16l-157 0q-15 0-15 16z m0 94q0 15 15 15l157 0q15 0 15-15t-15-16l-157 0q-15 0-15 16z m281 15q0-25 19-44t43-18l125 0-187 187 0-125z" horiz-adv-x="1000" />
<glyph glyph-name="truck" unicode="&#xe867;" d="m0 319l0 343q0 40 27 67t67 27l469 0q39 0 66-27t27-67l0-62 125 0q51 0 78-41l125-187q16-24 16-53l0-188q0-39-27-66t-67-27l-35 0q-12-42-45-68t-76-26-76 26-45 68l-164 0q-12-42-45-68t-76-26-76 26-45 68l-35 0q-40 0-67 27t-27 66l0 94q-39 0-67 27t-27 67z m63 0q0-14 8-23t23-8l469 0q13 0 22 8t9 23l0 343q0 14-9 23t-22 9l-469 0q-14 0-23-9t-8-23l0-343z m93-188q0-13 9-22t23-9l35 0q11 41 45 67t76 27 76-27 45-67l164 0q12 41 45 67t76 27 76-27 45-67l35 0q14 0 23 9t8 22l0 188q0 10-5 17l-125 188q-8 14-26 14l-125 0 0-219q0-39-27-67t-66-27l-407 0 0-94z m125-62q0-26 19-44t44-19 44 19 18 44-18 44-44 18-44-18-19-44z m407 0q0-26 18-44t44-19 44 19 18 44-18 44-44 18-44-18-18-44z m0 219l0 187q0 14 8 22t23 9l31 0q18 0 25-13l94-141q6-8 6-18l0-46q0-14-9-23t-22-9l-125 0q-14 0-23 9t-8 23z m31 0l125 0 0 46-94 141-31 0 0-187z" horiz-adv-x="1000" />
<glyph glyph-name="behance" unicode="&#xe868;" d="m1031 661h-285v-69h285v69z m-140-238q-51 0-82-29t-34-80h227q-10 109-111 109z m9-326q35 0 68 17t42 49h123q-55-171-238-171-119 0-190 73t-71 194q0 116 73 193t188 77q77 0 134-38t86-100 28-139q0-9-1-26h-367q0-62 32-96t93-33z m-745 27h165q114 0 114 94 0 100-111 100h-168v-194z m0 300h156q44 0 69 20t26 64q0 80-106 80h-145v-164z m-155 284h332q48 0 86-8t71-26 50-54 17-86q0-101-96-147 64-17 96-64t33-114q0-41-14-76t-37-58-55-39-67-24-75-7h-341v703z" horiz-adv-x="1142.9" />
<glyph glyph-name="bitbucket" unicode="&#xe869;" d="m455 371q4-35-28-57t-63-3q-21 9-29 32t-1 46 29 32q20 10 41 7t35-20 16-37z m62 11q-8 60-63 92t-110 7q-35-15-56-49t-20-72q3-51 44-87t92-31q51 4 85 47t28 93z m133 303q-11 15-31 25t-32 12-40 7q-162 26-316-1-24-4-37-7t-30-12-28-24q16-16 42-26t41-12 49-6q127-17 250-1 35 5 50 7t40 12 42 26z m32-578q-5-14-9-42t-8-47-15-39-33-32q-48-27-106-40t-112-12-113 10q-25 5-45 10t-43 15-41 25-29 34q-14 54-31 163l3 9 10 5q124-83 283-83t283 83q12-3 13-13t-3-25-4-21z m101 537q-15-94-62-366-3-17-15-31t-24-23-31-17q-140-70-340-49-139 15-220 78-8 6-14 14t-10 20-5 19-3 22-3 19q-5 28-15 84t-16 90-13 83-12 88q2 14 10 27t17 21 26 17 25 12 27 10q70 26 175 36 211 21 377-28 86-25 120-68 9-11 9-28t-3-30z" horiz-adv-x="785.7" />
<glyph glyph-name="cc" unicode="&#xe86a;" d="m438 288h116q-8-89-55-139t-120-51q-90 0-142 65t-52 176q0 109 52 174t130 66q83 0 130-49t54-138h-113q-3 36-20 56t-46 19q-32 0-49-34t-18-99q0-26 3-46t10-39 22-29 37-10q53 0 61 78z m397 0h115q-7-89-54-139t-120-51q-90 0-142 65t-51 176q0 109 51 174t131 66q82 0 129-49t54-138h-114q-2 36-19 56t-45 19q-32 0-50-34t-17-99q0-26 2-46t10-39 22-29 37-10q27 0 43 21t18 57z m201 66q0 115-9 171t-34 90q-3 5-7 8t-12 8-9 6q-48 36-389 36-349 0-396-36-3-2-10-6t-12-8-8-8q-25-34-33-89t-9-172q0-116 9-172t33-89q4-5 9-9t11-8 10-6q24-19 133-28t263-8q340 0 389 36 3 2 9 6t12 8 7 9q26 33 34 88t9 173z m107 425v-858h-1143v858h1143z" horiz-adv-x="1142.9" />
<glyph glyph-name="codeopen" unicode="&#xe86b;" d="m121 198l336-225v201l-186 124z m-35 80l108 72-108 72v-144z m457-305l336 225-150 100-186-124v-201z m-43 275l152 102-152 102-152-102z m-229 154l186 124v201l-336-225z m535-52l108-72v144z m-77 52l150 100-336 225v-201z m271 100v-304q0-23-19-36l-457-305q-12-7-24-7t-24 7l-457 305q-19 13-19 36v304q0 23 19 36l457 305q12 7 24 7t24-7l457-305q19-13 19-36z" horiz-adv-x="1000" />
<glyph glyph-name="css3" unicode="&#xe86c;" d="m153 779h840l-148-744-449-149-389 149 39 198h166l-16-82 235-89 272 89 38 190h-675l33 165h674l22 107h-674z" horiz-adv-x="1000" />
<glyph glyph-name="delicious" unicode="&#xe86d;" d="m821 82v268h-392v393h-268q-52 0-89-37t-36-88v-268h393v-393h267q52 0 89 37t36 88z m36 536v-536q0-66-47-113t-114-48h-535q-67 0-114 48t-47 113v536q0 66 47 113t114 48h535q67 0 114-48t47-113z" horiz-adv-x="857.1" />
<glyph glyph-name="digg" unicode="&#xe86e;" d="m183 693h114v-549h-297v389h183v160z m0-457v206h-69v-206h69z m160 297v-389h114v389h-114z m0 160v-114h114v114h-114z m160-160h297v-526h-297v91h183v46h-183v389z m183-297v206h-69v-206h69z m160 297h297v-526h-297v91h182v46h-182v389z m182-297v206h-68v-206h68z" horiz-adv-x="1142.9" />
<glyph glyph-name="dribbble" unicode="&#xe86f;" d="m571 13q-23 134-78 278h-1l-1-1q-9-3-24-9t-56-27-77-46-73-64-57-82l-9 6q103-84 234-84 73 0 142 29z m-103 339q-12 27-29 62-174-52-376-52 0-4 0-12 0-69 24-132t69-112q28 49 69 93t80 69 73 45 55 27l21 7q2 1 7 2t7 3z m-59 118q-67 119-137 211-77-36-130-104t-72-152q169 0 339 45z m381-178q-117 33-228 16 49-133 71-262 62 42 104 106t53 140z m-449 413q-1 0-1 0 0 0 1 0z m329-80q-103 91-241 91-43 0-87-11 73-94 137-213 39 15 73 34t54 34 36 32 21 23z m125-271q-2 129-83 229l-1-1q-5-7-11-14t-24-24-40-34-55-36-74-36q14-30 25-53 1-4 3-10t5-9q20 2 41 4t41 1 39-1 35-2 32-3 27-4 20-3 14-3z m62-4q0-117-57-215t-156-156-215-58-216 58-155 156-58 215 58 215 155 156 216 58 215-58 156-156 57-215z" horiz-adv-x="857.1" />
<glyph glyph-name="deviantart" unicode="&#xe870;" d="m780 779q32 0 55-23t22-55v-702q0-32-22-55t-55-23h-702q-33 0-55 23t-23 55v702q0 32 23 55t55 23h702z m38-780v702q0 16-12 27t-26 11h-702q-16 0-27-11t-11-27v-702q0-16 11-27t27-11h702q15 0 26 11t12 27z m-431 412l105-216 298 81v-277q0-4-3-7t-7-3h-702q-4 0-7 3t-3 7v79l396 109-118 244q2 1 7 2t6 1q95 18 170 12t123-26 80-53q15-15-14-23-36-9-143-35l-54 111q-62 4-134-9z m393 300q3 0 7-3t3-7v-239q-48 17-105 29-164 36-360 7l-10-2-37 75h-130l48-106q-74-28-128-76v312q0 4 3 7t7 3h702z m-620-502q-8-2-15 2t-8 12q-13 114 93 171l72-151z" horiz-adv-x="857.1" />
<glyph glyph-name="dropbox" unicode="&#xe871;" d="m224 455l276-170-191-159-273 178z m551-309v-60l-274-164v-1l0 1-1-1v1l-273 164v60l82-54 191 159v1l1-1 0 1v-1l192-159z m-466 638l191-159-276-170-188 151z m467-329l188-151-273-178-191 159z m-85 329l273-178-188-151-276 170z" horiz-adv-x="1000" />
<glyph glyph-name="drupal" unicode="&#xe872;" d="m651-35q-3 10-13 3-17-13-49-22t-73-10q-72 0-107 28-3 2-8 2-6 0-14-7-4-3-4-9t4-11q19-18 49-25t57-7 55 2q23 2 47 12t36 16 16 12q7 6 4 16z m-22 64q-10 26-21 34-13 9-43 9-26 0-39-6-16-7-44-31-14-14-7-25 5-4 10-2t18 13q1 1 6 5t6 4 5 4 7 4 6 3 9 2 9 2 12 0q15 0 24-4t13-8 8-12q5-10 7-11t7 0q12 7 7 19z m199 157q0 12-3 25t-9 25-19 20-30 8q-18 0-54-23t-72-47-56-23q-15-1-36 11t-42 27-47 32-55 28-62 10q-65 0-110-44t-47-99q-1-63 41-92 16-11 35-16t58-4q32 0 73 18t75 39 67 40 52 17q15-1 36-18t40-37 38-38 31-18q20-1 33 8t31 35q15 23 23 57t9 59z m29 89q0-91-34-170t-93-131-135-84-163-30-163 32-138 88-95 135-36 168q0 50 11 96t27 82 40 66 43 52 44 39 36 26 24 13q8 5 28 15t31 16 27 17 33 24q20 16 33 41t16 70q72-87 104-108 25-16 73-38t72-37q11-7 22-14t33-26 43-39 42-53 38-68 26-83 11-99z" horiz-adv-x="857.1" />
<glyph glyph-name="facebook" unicode="&#xe873;" d="m535 843v-147h-87q-48 0-65-20t-17-60v-106h164l-22-165h-142v-424h-171v424h-142v165h142v122q0 104 58 161t155 57q82 0 127-7z" horiz-adv-x="571.4" />
<glyph glyph-name="flickr" unicode="&#xe874;" d="m696 779q67 0 114-48t47-113v-536q0-66-47-113t-114-48h-535q-67 0-114 48t-47 113v536q0 66 47 113t114 48h535z m-306-429q0 49-35 84t-84 34-83-34-35-84 35-84 83-34 84 34 35 84z m314 0q0 49-34 84t-84 34-84-34-34-84 34-84 84-34 84 34 34 84z" horiz-adv-x="857.1" />
<glyph glyph-name="foursquare" unicode="&#xe875;" d="m558 608l21 108q2 13-5 22t-20 10h-397q-13 0-22-10t-8-20v-615q0-4 3 0l162 196q13 15 22 19t26 4h134q12 0 20 8t10 17q14 72 21 106 2 12-6 22t-21 11h-164q-16 0-26 11t-11 26v24q0 16 11 26t26 11h193q10 0 20 7t11 17z m127 124q-9-41-30-149t-39-195-19-97q-4-13-5-18t-8-19-14-18-21-12-33-5h-151q-7 0-12-6-5-5-238-275-12-14-33-16t-27 3q-30 12-30 54v787q0 31 21 57t67 27h495q53 0 71-30t6-88z m0 0l-88-441q2 9 19 97t39 195 30 149z" horiz-adv-x="714.3" />
<glyph glyph-name="git" unicode="&#xe876;" d="m332 5q0 56-92 56-88 0-88-58 0-57 96-57 84 0 84 59z m-33 421q0 35-17 57t-49 23q-69 0-69-81 0-75 69-75 66 0 66 76z m150 181v-112q-20-7-44-13 9-24 9-47 0-70-41-120t-110-63q-22-5-33-15t-11-33q0-17 13-28t32-18 44-12 48-15 44-21 32-35 13-55q0-170-203-170-38 0-72 7t-65 23-49 46-18 71q0 92 102 125v3q-38 22-38 70 0 61 35 76v3q-40 13-66 60t-27 92q0 78 53 130t131 51q54 0 100-26 54 0 121 26z m178-491h-124q2 25 2 74v340q0 53-2 72h124q-3-19-3-70v-342q0-49 3-74z m335 124v-110q-40-22-97-22-35 0-60 12t-39 27-22 44-10 51-2 58v196h1v2q-4 0-11 0t-10 1q-12 0-33-3v106h54v42q0 30-4 50h127q-3-23-3-92h95v-106q-8 0-24 1t-24 1h-47v-204q0-73 48-73 34 0 61 19z m-321 528q0-32-22-57t-54-24q-32 0-54 24t-23 57q0 33 22 57t55 25q33 0 54-25t22-57z" horiz-adv-x="1000" />
<glyph glyph-name="github" unicode="&#xe877;" d="m357 171q0-22-7-45t-24-43-40-19-41 19-24 43-7 45 7 46 24 43 41 19 40-19 24-43 7-46z m357 0q0-22-7-45t-24-43-40-19-41 19-24 43-7 45 7 46 24 43 41 19 40-19 24-43 7-46z m90 0q0 67-39 114t-104 47q-23 0-109-12-40-6-88-6t-87 6q-85 12-109 12-66 0-104-47t-39-114q0-49 18-85t45-58 68-33 78-17 83-4h94q46 0 83 4t78 17 69 33 45 58 18 85z m125 99q0-116-34-185-22-43-59-74t-79-48-95-27-96-12-93-3q-43 0-79 2t-82 7-85 17-77 28-67 46-48 64q-35 69-35 185 0 132 76 221-15 45-15 94 0 65 28 122 61 0 106-22t106-69q82 20 172 20 83 0 156-18 59 46 105 67t105 22q29-57 29-122 0-48-15-93 76-90 76-222z" horiz-adv-x="928.6" />
<glyph glyph-name="gittip" unicode="&#xe878;" d="m431 123l196 264q9 13 13 33t-3 48-34 44q-23 14-47 14t-41-10-30-25q-20-22-54-22-33 0-53 22-13 16-30 25t-41 10-47-14q-26-17-34-44t-3-48 14-33z m426 227q0-117-57-215t-156-156-215-58-216 58-155 156-58 215 58 215 155 156 216 58 215-58 156-156 57-215z" horiz-adv-x="857.1" />
<glyph glyph-name="google" unicode="&#xe879;" d="m547 103q0 14-3 27t-9 24-15 23-16 19-22 20-20 16-23 16-20 15q-9 1-28 1-29 0-58-4t-60-14-54-25-38-42-15-59q0-31 13-57t34-42 48-28 56-16 57-5q32 0 62 7t55 22 41 41 15 61z m-65 479q0 33-9 70t-27 72-47 57-65 23q-24 0-46-11t-37-29q-26-33-26-89 0-26 6-55t17-57 29-52 42-37 54-15q20 0 43 10t37 24q29 31 29 89z m-62 268h232l-76-49h-74q42-35 63-74t22-90q0-40-14-72t-33-52-39-36-33-34-14-37q0-20 18-40t43-38 51-41 43-58 18-79q0-51-28-96-39-68-117-101t-166-32q-74 0-138 24t-96 76q-20 33-20 73 0 46 25 84t66 64q73 46 225 56-17 23-26 41t-9 41q0 22 12 47-26-2-38-2-83 0-139 54t-57 137q0 45 20 88t55 73q43 37 102 55t122 18z" horiz-adv-x="714.3" />
<glyph glyph-name="gplus" unicode="&#xe87a;" d="m410 406q0-20 18-40t43-37 51-41 43-59 18-79q0-50-27-96-40-68-118-101t-166-32q-74 0-138 24t-95 76q-21 34-21 73 0 46 25 84t66 64q73 46 225 56-18 24-26 41t-9 41q0 20 12 48-26-3-38-3-83 0-139 54t-57 137q0 45 20 88t55 73q43 37 102 55t122 18h233l-77-49h-73q41-35 62-74t21-90q0-40-13-72t-33-52-39-36-33-34-14-37z m-81 53q21 0 43 10t37 24q30 32 30 89 0 32-10 69t-27 73-47 57-65 23q-24 0-46-11t-37-29q-26-33-26-89 0-26 5-55t18-57 29-52 42-37 54-15z m1-487q32 0 62 7t55 22 41 41 15 61q0 14-4 27t-8 24-15 23-16 19-22 20-20 16-23 16-21 15q-8 1-26 1-30 0-59-4t-60-14-54-25-38-42-15-59q0-39 19-69t51-46 67-25 71-8z m452 489h119v-60h-119v-122h-59v122h-118v60h118v121h59v-121z" horiz-adv-x="928.6" />
<glyph glyph-name="gwallet" unicode="&#xe87b;" d="m336 522q11-34 17-68t10-79-8-89-35-81q-11 45-37 88t-53 70-56 51-43 32-19 11q-34 19-45 55t8 72 56 45 72-8q77-46 133-99z m181 161q6-14 12-26t20-56 24-84 14-100 0-115-26-117-59-116q-29-40-77-40-30 0-55 17-32 22-38 61t15 70q34 48 45 109t8 112-18 100-22 72-12 29q-18 35-5 72t48 54q19 10 41 10 27 0 50-14t35-39z m179-374q-9-89-40-173-9 73-35 137 14 97-3 201-15 100-52 191 63-50 118-117 5-21 9-45 14-100 3-194z m152 487q5-9 13-27t25-66 28-99 19-127 3-150-27-168-62-180q-13-27-37-42t-53-16q-22 0-42 9-37 18-51 56t2 76q33 70 51 144t20 133-2 120-14 100-22 78-18 50-9 18q-19 36-6 76t49 58q20 11 45 11 27 0 51-14t37-40z" horiz-adv-x="1000" />
<glyph glyph-name="hacker-news" unicode="&#xe87c;" d="m460 298l192 328h-84q-12-22-35-66t-38-72-33-66-34-71h-2q-11 26-24 54t-29 59-26 51-31 58-27 53h-84l181-328v-243h74v243z m397 320v-536q0-66-47-113t-114-48h-535q-67 0-114 48t-47 113v536q0 66 47 113t114 48h535q67 0 114-48t47-113z" horiz-adv-x="857.1" />
<glyph glyph-name="html5" unicode="&#xe87d;" d="m631 517l9 98h-494l26-298h342l-12-128-110-29-110 29-7 78h-98l13-155 202-55h2v0l200 55 28 304h-359l-9 101h377z m-631 262h786l-72-803-322-90-321 90z" horiz-adv-x="785.7" />
<glyph glyph-name="instagramm" unicode="&#xe87e;" d="m760 54v362h-75q11-35 11-73 0-71-36-130t-97-94-134-35q-110 0-188 76t-78 183q0 38 11 73h-79v-362q0-14 10-24t25-10h596q14 0 24 10t10 24z m-158 298q0 69-51 118t-122 49q-71 0-121-49t-51-118 51-118 121-49q72 0 122 49t51 118z m158 201v92q0 15-11 27t-27 11h-98q-16 0-27-11t-11-27v-92q0-17 11-28t27-11h98q16 0 27 11t11 28z m97 116v-638q0-45-32-77t-78-33h-637q-45 0-78 33t-32 77v638q0 45 32 77t78 33h637q45 0 78-33t32-77z" horiz-adv-x="857.1" />
<glyph glyph-name="ioxhost" unicode="&#xe87f;" d="m816 386q0-20-14-34t-34-14h-391q-20 0-34 14t-14 34 14 33 34 15h391q21 0 34-15t14-33z m120 0q0 48-13 95h-548q-20 0-34 14t-14 33q0 20 14 34t34 14h507q-49 80-131 127t-179 47q-99 0-183-49t-133-133-48-182q0-48 12-95h548q21 0 34-14t14-34q0-20-14-34t-34-14h-506q49-79 131-126t179-47q74 0 141 29t116 77 78 116 29 142z m207 142q0-20-14-33t-34-14h-73q9-48 9-95 0-93-36-179t-98-146-147-99-178-36q-137 0-250 74t-168 195h-106q-20 0-34 14t-14 34q0 20 14 34t34 14h74q-10 47-10 95 0 93 37 178t98 147 146 98 179 37q137 0 250-75t168-195h105q20 0 34-14t14-34z" horiz-adv-x="1142.9" />
<glyph glyph-name="joomla" unicode="&#xe880;" d="m597 251l-89-89-84-85-17-17q-36-35-85-48t-95-1q-9-39-41-65t-72-25q-47 0-80 34t-34 81q0 41 25 72t63 40q-12 48 1 97t49 84l7 7 84-85-6-6q-21-21-21-50t21-50q20-20 49-20t50 20l17 17 84 85 90 89z m-190 381l7-7-85-85-7 7q-21 21-50 21t-49-21-21-50 21-50l16-16 85-85 89-89-84-85-90 89-84 85-17 17q-38 37-50 89t2 100q-39 8-64 40t-25 72q0 47 34 81t81 34q42 0 74-28t39-68q47 11 94-2t84-49z m450-596q0-47-33-81t-81-34q-42 0-73 27t-40 66q-48-16-100-4t-90 50l-6 7 84 85 7-7q20-20 49-20t50 20 21 50-21 50l-17 16-85 85-89 89 85 85 89-89 85-85 16-17q36-35 49-84t1-95q43-6 71-39t28-75z m-1 628q0-43-28-76t-71-38q14-48 1-99t-50-88l-7-7-84 85 7 7q21 20 21 49t-21 50-50 21-49-21l-17-17-85-85-89-89-85 85 90 89 85 85 16 17q37 37 88 50t100-2q6 42 38 70t76 28q47 0 81-33t33-81z" horiz-adv-x="857.1" />
<glyph glyph-name="jsfiddle" unicode="&#xe881;" d="m1004 419q62-25 101-81t38-124q0-91-66-156t-159-65q-2 0-6 0t-6 0h-679q-95 6-161 70t-66 157q0 61 31 113t82 82q-7 22-7 46 0 64 46 109t111 46q53 0 96-33 42 86 124 139t182 52q93 0 171-45t124-122 45-168q0-3 0-10t-1-10z m-743-148q0-68 47-108t116-40q77 0 134 56-9 11-26 31t-25 28q-37-36-80-36-31 0-52 19t-22 49q0 29 22 48t51 19q24 0 47-12t41-30 36-42 38-46 43-42 55-30 67-12q68 0 114 40t47 106q0 68-47 107t-115 40q-80 0-135-54 8-9 17-19t19-23 16-19q37 36 79 36 29 0 52-18t22-47q0-32-21-51t-52-19q-24 0-46 11t-40 31-37 42-39 46-43 41-54 31-66 12q-68 0-115-39t-48-106z" horiz-adv-x="1142.9" />
</font>
</defs>
</svg>
